Jedyny taki katalog polskich torrentów w sieci. Najlepsze torrenty w jednym miejscu.

Korzystanie ze strony jest darmowe. W przeciwieństwie do konkurencji nie kasujemy kont użytkowników bez ich wyraźnej prośby.


Torrent: Szybcy I Wściekli: Tokio Drift - The Fast and the Furious: Tokyo Drift *2006* [1080p.DTS-HD MA.5.1.AC3.Custom.BluRay.x264-LEON 345] [Lektor i Napisy PL]

Szybcy I Wściekli: Tokio Drift - The Fast and the Furious: Tokyo Drift *2006* [1080p.DTS-HD MA.5.1.AC3.Custom.BluRay.x264-LEON 345] [Lektor i Napisy PL] torrent
Dodał: sonykaszub
11.11.2013 18:17
Kategoria: Akcja

Rozmiar: 12.82 GB
Seed'ów: 0
Leecher'ów: 0
Pobrań: 0

Kondycja:
 


» Komentarze [0]
» Obserwuj
» Zgłoś plik
Szybcy I Wściekli:Tokio Drift-The Fast and the Furious:Tokyo Drift*2006*Custom(Leon 345)
==========================================================

IMDB http://www.imdb.com/title/tt0463985/?ref_=nv_sr_6

produkcja: USA
gatunek: Akcja
data premiery: 2006-08-11 (Polska), 2006-06-15 (Świat)
reżyseria: Justin Lin
scenariusz: Chris Morgan, Alfredo Botello
zdjęcia: Stephen F. Windon
muzyka: Brian Tyler

Kontynuacja przebojów kasowych "Szybcy i wściekli". Idąc śladami swoich poprzedników, film "Szybcy i wściekli: Tokio Drift" prezentuje najnowszy rozdział w cieszącej się niezwykłą popularnością serii, która do tej pory przyniosła na całym świecie wpływy w wysokości ponad 443 milionów dolarów. Opuszczając amerykańskie ulice, udajemy się do postmodernistycznego Tokio, gdzie puls bije szybciej, a zawrotne wyścigi przyprawiają o zawrót głowy i przyspieszone bicie serca. "Szybcy i wściekli: Tokio Drift" to historia Seana Boswella, który zawsze był outsiderem. Ten typ samotnika, wyobcowanego zarówno w domu rodzinnym, jak i poza nim, odnajduje związek z obojętnym mu otaczającym światem jedynie poprzez nielegalne wyścigi samochodów, które dodatkowo nie przysporzyły mu popularności wśród lokalnych przedstawicieli władzy. Po jednej z kolejnych kraks, chcąc uniknąć kary więzienia, Sean zostaje oddelegowany z kraju, wysłany do Tokio, gdzie przychodzi mu dzielić niewielkie mieszkanie w zapuszczonej dzielnicy miasta z pracującym dla wojska, szorstkim ojcem.

General

Format : Matroska
Format version : Version 2
File size : 12.8 GiB
Duration : 1h 44mn
Overall bit rate mode : Variable
Overall bit rate : 17.6 Mbps
Movie name : encoded Leon 345
Encoded date : UTC 2013-11-02 23:22:01
Writing application : mkvmerge v5.7.0 ('The Whirlwind') built on Jul 8 2012 20:08:51
Writing library : libebml v1.2.3 + libmatroska v1.3.0

Video
ID : 1
Format : AVC
Format/Info : Advanced Video Codec
Format profile : High@L4.1
Format settings, CABAC : Yes
Format settings, ReFrames : 4 frames
Codec ID : V_MPEG4/ISO/AVC
Duration : 1h 44mn
Nominal bit rate : 11.5 Mbps
Width : 1 920 pixels
Height : 1 080 pixels
Display aspect ratio : 16:9 (2.39:1)
Frame rate mode : Constant
Frame rate : 23.976 fps
Color space : YUV
Chroma subsampling : 4:2:0
Bit depth : 8 bits
Scan type : Progressive
Bits/(Pixel*Frame) : 0.231
Title : Rip by Leon 345
Writing library : x264 core 128 r2216
Default : Yes
Forced : No

Audio #1
ID : 2
Format : AC-3
Format/Info : Audio Coding 3
Mode extension : CM (complete main)
Format settings, Endianness : Big
Codec ID : A_AC3
Duration : 1h 44mn
Bit rate mode : Constant
Bit rate : 448 Kbps
Channel(s) : 6 channels
Channel positions : Front: L C R, Side: L R, LFE
Sampling rate : 48.0 KHz
Bit depth : 16 bits
Compression mode : Lossy
Stream size : 334 MiB (3%)
Title : AC3 5.1 Lektor PL Orginał z Bluray
Language : Polish
Default : Yes
Forced : Yes

Audio #2
ID : 3
Format : AC-3
Format/Info : Audio Coding 3
Mode extension : CM (complete main)
Format settings, Endianness : Big
Codec ID : A_AC3
Duration : 1h 44mn
Bit rate mode : Constant
Bit rate : 640 Kbps
Channel(s) : 6 channels
Channel positions : Front: L C R, Side: L R, LFE
Sampling rate : 48.0 KHz
Bit depth : 16 bits
Compression mode : Lossy
Stream size : 477 MiB (4%)
Title : AC3 5.1
Language : English
Default : No
Forced : No

Audio #3
ID : 4
Format : DTS
Format/Info : Digital Theater Systems
Mode : 16
Format settings, Endianness : Big
Codec ID : A_DTS
Duration : 1h 44mn
Bit rate mode : Constant
Bit rate : 755 Kbps
Channel(s) : 6 channels
Channel positions : Front: L C R, Side: L R, LFE
Sampling rate : 48.0 KHz
Bit depth : 24 bits
Compression mode : Lossy
Stream size : 563 MiB (4%)
Title : DTS 5.1 Lektor PL Custom (Leon 345)
Language : Polish
Default : No
Forced : No

Audio #4
ID : 5
Format : DTS
Format/Info : Digital Theater Systems
Format profile : MA / Core
Mode : 16
Format settings, Endianness : Big
Codec ID : A_DTS
Duration : 1h 44mn
Bit rate mode : Variable
Bit rate : 4458 / 1 509 Kbps
Channel(s) : 6 channels
Channel positions : Front: L C R, Side: L R, LFE
Sampling rate : 48.0 KHz
Bit depth : 24 bits
Compression mode : Lossless / Lossy
Title : DTS-HD MA 5.1 Orginal
Language : English
Default : No
Forced : No

Text #1
ID : 6
Format : PGS
Muxing mode : zlib
Codec ID : S_HDMV/PGS
Codec ID/Info : The same subtitle format used on BDs/HD-DVDs
Language : Polish
Default : No
Forced : No

Text #2
ID : 7
Format : PGS
Muxing mode : zlib
Codec ID : S_HDMV/PGS
Codec ID/Info : The same subtitle format used on BDs/HD-DVDs
Language : English
Default : No
Forced : No

Text #3
ID : 8
Format : UTF-8
Codec ID : S_TEXT/UTF8
Codec ID/Info : UTF-8 Plain Text
Default : Yes
Forced : Yes

Source [thx]:
A/V-The Fast and the Furious (2001) Blu-ray CEE 1080p DTS 5.1 -G52
Lektor PL DTS - Leon 345 Custom 5.1 [DTS 5.1 ENG + AC3 5.1 PL]
===========================================
Prosze nie przewalać wstawki w ciągu 24 H !!!!!
===========================================
Ocena użytkowników Help
Działa(0) | Fake(0) | Nie działa(0) | Wymagane hasło(0) | Wirus(0)
Statystyki seed/leech Ostatnio aktualizowane: 2021-05-04 15:39:02 [Aktualizuj]
Napisano: 22.01.2022 03:54
 
Nikt jeszcze nie skomentował tego torrenta... Może Ty to zrobisz?
Oświadczenie: Pliki prezentowane w katalogu nie znajdują się na serwerach wortalu. Użytkownicy zezwolili na ich udostępnienie. Administrator serwisu BitNova.info oraz właściciel serwera nie może ponieść konsekwencji za to co użytkownicy udostępniają i publikują. Pamiętaj! Nie możesz używać tego serwisu do rozpowszechniania lub ściągania materiałów do których nie masz odpowiednich praw lub licencji. Użytkownicy są odpowiedzialni za przestrzeganie tych zasad.

(Disclaimer: None files presented in the directory aren't hosted on servers vortal. Users allow their release. The administrator of site BitNova.info and owner of the server can not be held responsible for what its users post, or any other actions of its users. You may not use this site to distribute or download any material when you do not have the legal rights to do so. It is your own responsibility to adhere to these terms.)
» Zgłaszanie nadużyć / Abuse