Jedyny taki katalog polskich torrentów w sieci. Najlepsze torrenty w jednym miejscu.

Korzystanie ze strony jest darmowe. W przeciwieństwie do konkurencji nie kasujemy kont użytkowników bez ich wyraźnej prośby.


Torrent: Człowiek ze stali 3D (OU) - Man of Steel 3D *2013* [1080p.Half.Over-Under.Dual-audio.DTS 5.1.AC3.BluRay.x264-SONDA] [Lektor i napisy PL]

Człowiek ze stali 3D (OU) - Man of Steel 3D *2013* [1080p.Half.Over-Under.Dual-audio.DTS 5.1.AC3.BluRay.x264-SONDA] [Lektor i napisy PL] torrent
Dodał: Anonimowy
20.10.2013 21:00
Kategoria: Akcja

Rozmiar: 10.57 GB
Seed'ów: 0
Leecher'ów: 0
Pobrań: 0

Kondycja:
 


» Komentarze [0]
» Obserwuj
» Zgłoś plik
Film w wersji 3D Over-Under.
Do odtworzenia filmu WYMAGANY odpowiedni sprzęt (TV 3D)


gatunek: Akcja,Sci-Fi
produkcja: Kanada,USA,Wielka Brytania
premiera: 21 czerwca 2013 (Polska) 10 czerwca 2013 (świat)
reżyseria: Zack Snyder
scenariusz: David S. Goyer

Młody chłopiec dowiaduje się, że jest nie z tej ziemi i posiada nadprzyrodzone moce. Jako młody mężczyzna podróżuje, aby dowiedzieć się, skąd pochodzi i jaka jest jego misja. Ukryty w nim bohater musi się ujawnić, jeśli ma ocalić świat przed zagładą i stać się symbolem nadziei całej ludzkości.

http://www.blu-ray.com/movies/Man-of-Steel-3D-Blu-ray/68139/


General
Unique ID : 238772446972573713022942890690941305934 (0xB3A1E68A91E6D7A2ADBD01E5A2CC444E)
Complete name : F:mkvMAN_OF_STEEL_3D(Sonda)MAN_OF_STEEL_3D(Sonda).mkv
Format : Matroska
Format version : Version 2
File size : 10.6 GiB
Duration : 2h 23mn
Overall bit rate : 10.6 Mbps
Movie name : MAN_OF_STEEL_3D.Tilte0.Bluray3D Rip by Sonda
Encoded date : UTC 2013-10-19 13:48:50
Writing application : mkvmerge v5.7.0 ('The Whirlwind') built on Jul 8 2012 20:08:51
Writing library : libebml v1.2.3 + libmatroska v1.3.0

Video
ID : 1
Format : AVC
Format/Info : Advanced Video Codec
Format profile : High@L4.1
Format settings, CABAC : Yes
Format settings, ReFrames : 2 frames
Codec ID : V_MPEG4/ISO/AVC
Duration : 2h 23mn
Bit rate : 7 771 Kbps
Width : 1 920 pixels
Height : 1 080 pixels
Display aspect ratio : 16:9 (2.39:1)
Frame rate mode : Constant
Frame rate : 23.976 fps
Color space : YUV
Chroma subsampling : 4:2:0
Bit depth : 8 bits
Scan type : Progressive
Bits/(Pixel*Frame) : 0.156
Stream size : 7.76 GiB (73%)
Title : BluRay 3D Rip by Sonda
Writing library : x264 core
Default : Yes
Forced : No
Color primaries : BT.709
Transfer characteristics : BT.709
Matrix coefficients : BT.709

Audio #1
ID : 2
Format : AC-3
Format/Info : Audio Coding 3
Mode extension : CM (complete main)
Format settings, Endianness : Big
Codec ID : A_AC3
Duration : 2h 23mn
Bit rate mode : Constant
Bit rate : 448 Kbps
Channel(s) : 6 channels
Channel positions : Front: L C R, Side: L R, LFE
Sampling rate : 48.0 KHz
Bit depth : 16 bits
Compression mode : Lossy
Stream size : 458 MiB (4%)
Title : AC3 5.1 Lektor PL
Language : Polish
Default : Yes
Forced : Yes

Audio #2
ID : 3
Format : AC-3
Format/Info : Audio Coding 3
Mode extension : CM (complete main)
Format settings, Endianness : Big
Codec ID : A_AC3
Duration : 2h 23mn
Bit rate mode : Constant
Bit rate : 640 Kbps
Channel(s) : 6 channels
Channel positions : Front: L C R, Side: L R, LFE
Sampling rate : 48.0 KHz
Bit depth : 16 bits
Compression mode : Lossy
Stream size : 655 MiB (6%)
Title : AC3 5.1 Orginal
Language : English
Default : No
Forced : No

Audio #3
ID : 4
Format : DTS
Format/Info : Digital Theater Systems
Mode : 16
Format settings, Endianness : Big
Codec ID : A_DTS
Duration : 2h 23mn
Bit rate mode : Constant
Bit rate : 1 509 Kbps
Channel(s) : 6 channels
Channel positions : Front: L C R, Side: L R, LFE
Sampling rate : 48.0 KHz
Bit depth : 24 bits
Compression mode : Lossy
Stream size : 1.51 GiB (14%)
Title : DTS 5.1 Orginal
Language : English
Default : No
Forced : No

Text
ID : 5
Format : UTF-8
Codec ID : S_TEXT/UTF8
Codec ID/Info : UTF-8 Plain Text
Language : Polish
Default : No
Forced : No
Ocena użytkowników Help
Działa(0) | Fake(0) | Nie działa(0) | Wymagane hasło(0) | Wirus(0)
Statystyki seed/leech Ostatnio aktualizowane: 2018-02-19 15:53:48 [Aktualizuj]
Napisano: 06.10.2022 03:47
 
Nikt jeszcze nie skomentował tego torrenta... Może Ty to zrobisz?
Oświadczenie: Pliki prezentowane w katalogu nie znajdują się na serwerach wortalu. Użytkownicy zezwolili na ich udostępnienie. Administrator serwisu BitNova.info oraz właściciel serwera nie może ponieść konsekwencji za to co użytkownicy udostępniają i publikują. Pamiętaj! Nie możesz używać tego serwisu do rozpowszechniania lub ściągania materiałów do których nie masz odpowiednich praw lub licencji. Użytkownicy są odpowiedzialni za przestrzeganie tych zasad.

(Disclaimer: None files presented in the directory aren't hosted on servers vortal. Users allow their release. The administrator of site BitNova.info and owner of the server can not be held responsible for what its users post, or any other actions of its users. You may not use this site to distribute or download any material when you do not have the legal rights to do so. It is your own responsibility to adhere to these terms.)
» Zgłaszanie nadużyć / Abuse