Jedyny taki katalog polskich torrentów w sieci. Najlepsze torrenty w jednym miejscu.

Korzystanie ze strony jest darmowe. W przeciwieństwie do konkurencji nie kasujemy kont użytkowników bez ich wyraźnej prośby.


Torrent: Gang Olsena wraca do gry 3D (OU) - Olsen-banden p? de bonede gulve *2010* [mini-HD.1080p.Over-Under.AC3.BluRay.x264-SONDA] [Dubbing PL]

Gang Olsena wraca do gry 3D (OU) - Olsen-banden p? de bonede gulve *2010* [mini-HD.1080p.Over-Under.AC3.BluRay.x264-SONDA] [Dubbing PL] torrent
Dodał: Anonimowy
16.10.2013 21:22
Kategoria: Animowane

Rozmiar: 3.91 GB
Seed'ów: 0
Leecher'ów: 0
Pobrań: 0

Kondycja:
 


» Komentarze [0]
» Obserwuj
» Zgłoś plik
Film w wersji 3D Over-Under.
Do odtworzenia filmu WYMAGANY odpowiedni sprzęt (TV 3D)


gatunek:Animacja,Komedia kryminalna
produkcja: Dania
premiera: 15 października 2010 (świat)
reżyseria: J?rgen Lerdam
scenariusz: Nikolaj Peyk

Animowana wersja przygód zwariowanego gangu Olsena. Egon wpada na genialny pomysł wzbogacenia się. Chcąc zrealizować plan, gang musi zdobyć oryginalne pióro Hansa Christiana Andersena.

IMDb http://www.imdb.com/title/tt1274275/?ref_=fn_al_tt_1
----------------------------------------------------------------------

BluRay 3D Rip (OU) - SONDA
=============================

General
Unique ID : 176675035369471307018943468826230459969 (0x84EA5FC54DE31B1A9890EB3432070E41)
Complete name : F:mkvOLSEN_REAL_3D(Sonda)OLSEN_REAL_3D_miniHD(Sonda).mkv
Format : Matroska
Format version : Version 2
File size : 3.91 GiB
Duration : 1h 18mn
Overall bit rate mode : Variable
Overall bit rate : 7 164 Kbps
Movie name : OLSEN_REAL_3D.Title2.Bluray3D Rip by Sonda
Encoded date : UTC 2013-10-16 13:28:11
Writing application : mkvmerge v5.7.0 ('The Whirlwind') built on Jul 8 2012 20:08:51
Writing library : libebml v1.2.3 + libmatroska v1.3.0

Video
ID : 1
Format : AVC
Format/Info : Advanced Video Codec
Format profile : High@L4.1
Format settings, CABAC : Yes
Format settings, ReFrames : 2 frames
Codec ID : V_MPEG4/ISO/AVC
Duration : 1h 18mn
Bit rate mode : Variable
Bit rate : 6 765 Kbps
Maximum bit rate : 40.0 Mbps
Width : 1 920 pixels
Height : 1 080 pixels
Display aspect ratio : 16:9 (1.85:1)
Frame rate mode : Constant
Frame rate : 23.976 fps
Color space : YUV
Chroma subsampling : 4:2:0
Bit depth : 8 bits
Scan type : Progressive
Bits/(Pixel*Frame) : 0.136
Stream size : 3.70 GiB (94%)
Title : BluRay 3D Rip by Sonda
Writing library : x264 core
Default : Yes
Forced : No
Color primaries : BT.709
Transfer characteristics : BT.709
Matrix coefficients : BT.709

Audio
ID : 2
Format : AC-3
Format/Info : Audio Coding 3
Mode extension : CM (complete main)
Format settings, Endianness : Big
Codec ID : A_AC3
Duration : 1h 18mn
Bit rate mode : Constant
Bit rate : 256 Kbps
Channel(s) : 2 channels
Channel positions : Front: L R
Sampling rate : 48.0 KHz
Bit depth : 16 bits
Compression mode : Lossy
Delay relative to video : 128ms
Stream size : 143 MiB (4%)
Title : AC3 2.0 dubbing PL
Language : Polish
Default : Yes
Forced : No
Ocena użytkowników Help
Działa(0) | Fake(0) | Nie działa(0) | Wymagane hasło(0) | Wirus(0)
Statystyki seed/leech Ostatnio aktualizowane: 2021-09-20 10:46:22 [Aktualizuj]
Napisano: 27.01.2022 18:33
 
Nikt jeszcze nie skomentował tego torrenta... Może Ty to zrobisz?
Oświadczenie: Pliki prezentowane w katalogu nie znajdują się na serwerach wortalu. Użytkownicy zezwolili na ich udostępnienie. Administrator serwisu BitNova.info oraz właściciel serwera nie może ponieść konsekwencji za to co użytkownicy udostępniają i publikują. Pamiętaj! Nie możesz używać tego serwisu do rozpowszechniania lub ściągania materiałów do których nie masz odpowiednich praw lub licencji. Użytkownicy są odpowiedzialni za przestrzeganie tych zasad.

(Disclaimer: None files presented in the directory aren't hosted on servers vortal. Users allow their release. The administrator of site BitNova.info and owner of the server can not be held responsible for what its users post, or any other actions of its users. You may not use this site to distribute or download any material when you do not have the legal rights to do so. It is your own responsibility to adhere to these terms.)
» Zgłaszanie nadużyć / Abuse