Jedyny taki katalog polskich torrentów w sieci. Najlepsze torrenty w jednym miejscu.

Korzystanie ze strony jest darmowe. W przeciwieństwie do konkurencji nie kasujemy kont użytkowników bez ich wyraźnej prośby.


Torrent: W ciemność Star Trek - Star Trek Into Darkness *2013* [mini-HD.1080p.AAC.BluRay.x264-LEON 345] [Lektor PL]

W ciemność Star Trek - Star Trek Into Darkness *2013* [mini-HD.1080p.AAC.BluRay.x264-LEON 345] [Lektor PL] torrent
Dodał: Anonimowy
15.09.2013 18:54
Kategoria: Sci-fi

Rozmiar: 2.06 GB
Seed'ów: 0
Leecher'ów: 0
Pobrań: 0

Kondycja:
 


» Komentarze [0]
» Obserwuj
» Zgłoś plik
Produkcja: USA
Gatunek: Akcja, Sci-Fi
Premiera: 31.05.2013 - Polska, 02.05.2013 - Świat
Reżyseria: J.J. Abrams
Scenariusz: Alex Kurtzman, Damon Lindelof

Załoga Enterprise musi zmierzyć się z zagrożeniem dla całej Federacji, które ma swoje źródło w jej własnych szeregach. Kapitan Kirk dowodzi polowaniem na człowieka będącego jednoosobową bronią masowej zagłady. Droga wiedzie do rozdartego wojną świata, gdzie przyjaźń i lojalność Kirka oraz jego załogi będzie wystawiona na ciężką próbę.

General

Format : MPEG-4
Format profile : Base Media
Codec ID : isom
File size : 2.06 GiB
Duration : 2h 12mn
Overall bit rate mode : Variable
Overall bit rate : 2 235 Kbps
Movie name : Star_Trek_Into_Darkness_2013_miniHD(Leon 345)
Encoded date : UTC 2013-09-14 22:47:44
Tagged date : UTC 2013-09-14 22:50:10
stik : 9

Video
ID : 1
Format : AVC
Format/Info : Advanced Video Codec
Format profile : High@L4.1
Format settings, CABAC : Yes
Format settings, ReFrames : 2 frames
Codec ID : avc1
Codec ID/Info : Advanced Video Coding
Duration : 2h 12mn
Bit rate : 2 046 Kbps
Width : 1 920 pixels
Height : 800 pixels
Display aspect ratio : 2.40:1
Frame rate mode : Constant
Frame rate : 23.976 fps
Color space : YUV
Chroma subsampling : 4:2:0
Bit depth : 8 bits
Scan type : Progressive
Bits/(Pixel*Frame) : 0.056
Stream size : 1.89 GiB (92%)
Title : Rip by Leon 345
Writing library : x264 core
Language : English
Encoded date : UTC 2013-09-14 22:47:44
Tagged date : UTC 2013-09-14 22:48:13
Color primaries : BT.709
Transfer characteristics : BT.709
Matrix coefficients : BT.709

Audio
ID : 2
Format : AAC
Format/Info : Advanced Audio Codec
Format profile : HE-AAC / LC
Codec ID : 40
Duration : 2h 12mn
Bit rate mode : Variable
Bit rate : 185 Kbps
Maximum bit rate : 233 Kbps
Channel(s) : 6 channels
Channel positions : Front: L C R, Side: L R, LFE
Sampling rate : 48.0 KHz / 24.0 KHz
Compression mode : Lossy
Stream size : 175 MiB (8%)
Title : AAC 5.1 Lektor PL
Language : Polish
Encoded date : UTC 2013-09-14 22:48:10
Tagged date : UTC 2013-09-14 22:48:13


Source [thx]:
A/V-Star Trek Into Darkness (2013) Blu-ray CEE 1080p AVC DD5.1-BLUEBIRD
Ocena użytkowników Help
Działa(0) | Fake(0) | Nie działa(0) | Wymagane hasło(0) | Wirus(0)
Statystyki seed/leech Ostatnio aktualizowane: 2019-12-16 19:25:15 [Aktualizuj]
Napisano: 09.12.2021 02:44
 
Nikt jeszcze nie skomentował tego torrenta... Może Ty to zrobisz?
Oświadczenie: Pliki prezentowane w katalogu nie znajdują się na serwerach wortalu. Użytkownicy zezwolili na ich udostępnienie. Administrator serwisu BitNova.info oraz właściciel serwera nie może ponieść konsekwencji za to co użytkownicy udostępniają i publikują. Pamiętaj! Nie możesz używać tego serwisu do rozpowszechniania lub ściągania materiałów do których nie masz odpowiednich praw lub licencji. Użytkownicy są odpowiedzialni za przestrzeganie tych zasad.

(Disclaimer: None files presented in the directory aren't hosted on servers vortal. Users allow their release. The administrator of site BitNova.info and owner of the server can not be held responsible for what its users post, or any other actions of its users. You may not use this site to distribute or download any material when you do not have the legal rights to do so. It is your own responsibility to adhere to these terms.)
» Zgłaszanie nadużyć / Abuse