Jedyny taki katalog polskich torrentów w sieci. Najlepsze torrenty w jednym miejscu.

Korzystanie ze strony jest darmowe. W przeciwieństwie do konkurencji nie kasujemy kont użytkowników bez ich wyraźnej prośby.


Torrent: W ciemność Star Trek 3D (OU) - Star Trek Into Darkness 3D *2013* [mini-HD.1080p.Over-Under.AC3.BluRay.x264-SONDA] [Lektor PL]

W ciemność Star Trek 3D (OU) - Star Trek Into Darkness 3D *2013* [mini-HD.1080p.Over-Under.AC3.BluRay.x264-SONDA] [Lektor PL] torrent
Dodał: strus
13.09.2013 20:47
Kategoria: Sci-fi

Rozmiar: 3.96 GB
Seed'ów: 0
Leecher'ów: 0
Pobrań: 0

Kondycja:
 


» Komentarze [0]
» Obserwuj
» Zgłoś plik


Film w wersji 3D Over-Under.
Do odtworzenia filmu WYMAGANY odpowiedni sprzęt (TV 3D)

gatunek: Akcja,Sci-Fi
produkcja: USA
premiera: 31 maja 2013 (Polska) 2 maja 2013 (świat)
reżyseria: J.J. Abrams
scenariusz: Alex Kurtzman,Damon Lindelof,Roberto Orci

Dzielna załoga Enterprise musi zmierzyć się z zagrożeniem dla całej Federacji, które, jak się okazuje, ma swoje źródło w jej własnych szeregach. Kapitan Kirk (Chris Pine), mając również prywatne rachunki do wyrównania, dowodzi polowaniem na człowieka będącego jednoosobową bronią masowej zagłady. Droga wiedzie do rozdartego wojną świata, gdzie przyjaźń i lojalność Kirka oraz jego załogi będzie wystawiona na ciężką próbę.

BluRay 3D Rip (OU)

General
Unique ID : 193136143566415874346700723629364137806 (0x914CAB10B71560C4874196E2A060CF4E)
Complete name : F:mkvSTAR_TREK_INTO_DARKNESS_3D(Sonda)STAR_TREK_INTO_DARKNESS_3D_miniHD(Sonda).mkv
Format : Matroska
Format version : Version 2
File size : 3.96 GiB
Duration : 2h 12mn
Overall bit rate : 4 291 Kbps
Movie name : STAR_TREK_INTO_DARKNESS_3D.Bluray 3D Rip by Sonda
Encoded date : UTC 2013-09-13 15:51:40
Writing application : mkvmerge v5.7.0 ('The Whirlwind') built on Jul 8 2012 20:08:51
Writing library : libebml v1.2.3 + libmatroska v1.3.0

Video
ID : 1
Format : AVC
Format/Info : Advanced Video Codec
Format profile : High@L4.1
Format settings, CABAC : Yes
Format settings, ReFrames : 2 frames
Format settings, GOP : M=3, N=24
Codec ID : V_MPEG4/ISO/AVC
Duration : 2h 12mn
Bit rate : 3 757 Kbps
Width : 1 920 pixels
Height : 1 080 pixels
Display aspect ratio : 16:9 (2.39:1)
Frame rate mode : Constant
Frame rate : 23.976 fps
Color space : YUV
Chroma subsampling : 4:2:0
Bit depth : 8 bits
Scan type : Progressive
Bits/(Pixel*Frame) : 0.076
Stream size : 3.47 GiB (88%)
Title : BluRay 3D Rip by Sonda
Writing library : x264 core
Default : Yes
Forced : No
Color primaries : BT.709
Transfer characteristics : BT.709
Matrix coefficients : BT.709

Audio
ID : 2
Format : AC-3
Format/Info : Audio Coding 3
Mode extension : CM (complete main)
Format settings, Endianness : Big
Codec ID : A_AC3
Duration : 2h 12mn
Bit rate mode : Constant
Bit rate : 448 Kbps
Channel(s) : 6 channels
Channel positions : Front: L C R, Side: L R, LFE
Sampling rate : 48.0 KHz
Bit depth : 16 bits
Compression mode : Lossy
Stream size : 423 MiB (10%)
Title : AC3 5.1 Lektor PL
Language : Polish
Default : Yes
Forced : No
Ocena użytkowników Help
Działa(0) | Fake(0) | Nie działa(0) | Wymagane hasło(0) | Wirus(0)
Statystyki seed/leech Ostatnio aktualizowane: 2019-12-16 19:22:25 [Aktualizuj]
Napisano: 28.11.2021 06:23
 
Nikt jeszcze nie skomentował tego torrenta... Może Ty to zrobisz?
Oświadczenie: Pliki prezentowane w katalogu nie znajdują się na serwerach wortalu. Użytkownicy zezwolili na ich udostępnienie. Administrator serwisu BitNova.info oraz właściciel serwera nie może ponieść konsekwencji za to co użytkownicy udostępniają i publikują. Pamiętaj! Nie możesz używać tego serwisu do rozpowszechniania lub ściągania materiałów do których nie masz odpowiednich praw lub licencji. Użytkownicy są odpowiedzialni za przestrzeganie tych zasad.

(Disclaimer: None files presented in the directory aren't hosted on servers vortal. Users allow their release. The administrator of site BitNova.info and owner of the server can not be held responsible for what its users post, or any other actions of its users. You may not use this site to distribute or download any material when you do not have the legal rights to do so. It is your own responsibility to adhere to these terms.)
» Zgłaszanie nadużyć / Abuse