Jedyny taki katalog polskich torrentów w sieci. Najlepsze torrenty w jednym miejscu.

Korzystanie ze strony jest darmowe. W przeciwieństwie do konkurencji nie kasujemy kont użytkowników bez ich wyraźnej prośby.


Torrent: W ciemność Star Trek 3D (OU) - Star Trek Into Darkness 3D *2013* [mini-HD.1080p.Over-Under.AC3.SUBBEDPL.BluRay.x264-SONDA] [ENG]

W ciemność Star Trek 3D (OU) - Star Trek Into Darkness 3D *2013* [mini-HD.1080p.Over-Under.AC3.SUBBEDPL.BluRay.x264-SONDA] [ENG] torrent
Dodał: Anonimowy
01.09.2013 22:19
Kategoria: Sci-fi

Rozmiar: 3.99 GB
Seed'ów: 0
Leecher'ów: 0
Pobrań: 0

Kondycja:
 


» Komentarze [0]
» Obserwuj
» Zgłoś plik
Film w wersji 3D Over-Under.
Do odtworzenia filmu WYMAGANY odpowiedni sprzęt (TV 3D)


UWAGA: Napisy 3D na stałe wtopione w film

gatunek: Akcja,Sci-Fi
produkcja: USA
premiera: 31 maja 2013 (Polska) 2 maja 2013 (świat)
reżyseria: J.J. Abrams
scenariusz: Alex Kurtzman,Damon Lindelof,Roberto Orci

Dzielna załoga Enterprise musi zmierzyć się z zagrożeniem dla całej Federacji, które, jak się okazuje, ma swoje źródło w jej własnych szeregach. Kapitan Kirk (Chris Pine), mając również prywatne rachunki do wyrównania, dowodzi polowaniem na człowieka będącego jednoosobową bronią masowej zagłady. Droga wiedzie do rozdartego wojną świata, gdzie przyjaźń i lojalność Kirka oraz jego załogi będzie wystawiona na ciężką próbę.

BluRay 3D Rip (OU) - SONDA
===============================

Format : Matroska
Format version : Version 2
File size : 3.99 GiB
Duration : 2h 12mn
Overall bit rate mode : Variable
Overall bit rate : 4 320 Kbps
Movie name : STAR_TREK_INTO_DARKNESS_3D.Bluray 3D Rip by Sonda
Encoded date : UTC 2013-08-31 20:26:21
Writing application : mkvmerge v5.7.0 ('The Whirlwind') built on Jul 8 2012 20:08:51
Writing library : libebml v1.2.3 + libmatroska v1.3.0

Video
ID : 1
Format : AVC
Format/Info : Advanced Video Codec
Format profile : High@L4.1
Format settings, CABAC : Yes
Format settings, ReFrames : 2 frames
Codec ID : V_MPEG4/ISO/AVC
Duration : 2h 12mn
Bit rate mode : Variable
Bit rate : 3 867 Kbps
Maximum bit rate : 40.0 Mbps
Width : 1 920 pixels
Height : 1 080 pixels
Display aspect ratio : 16:9 (2.39:1)
Frame rate mode : Constant
Frame rate : 23.976 fps
Color space : YUV
Chroma subsampling : 4:2:0
Bit depth : 8 bits
Scan type : Progressive
Bits/(Pixel*Frame) : 0.078
Stream size : 3.49 GiB (88%)
Title : BluRay 3D Rip by Sonda subbedPL encoding 2 pass
Writing library : x264 core 129
Default : Yes
Forced : No

Audio
ID : 2
Format : AC-3
Format/Info : Audio Coding 3
Mode extension : CM (complete main)
Format settings, Endianness : Big
Codec ID : A_AC3
Duration : 2h 12mn
Bit rate mode : Constant
Bit rate : 448 Kbps
Channel(s) : 6 channels
Channel positions : Front: L C R, Side: L R, LFE
Sampling rate : 48.0 KHz
Bit depth : 16 bits
Compression mode : Lossy
Stream size : 423 MiB (10%)
Title : AC3 5.1 Orginal
Language : English
Default : Yes
Forced : No


Source:
A/V-Star Trek Into Darkness 2013 1080p 3D BluRay AVC TrueHD 7 1 TTG
Ocena użytkowników Help
Działa(0) | Fake(0) | Nie działa(0) | Wymagane hasło(0) | Wirus(0)
Statystyki seed/leech Ostatnio aktualizowane: 2019-12-16 19:26:09 [Aktualizuj]
Napisano: 27.10.2021 01:46
 
Nikt jeszcze nie skomentował tego torrenta... Może Ty to zrobisz?
Oświadczenie: Pliki prezentowane w katalogu nie znajdują się na serwerach wortalu. Użytkownicy zezwolili na ich udostępnienie. Administrator serwisu BitNova.info oraz właściciel serwera nie może ponieść konsekwencji za to co użytkownicy udostępniają i publikują. Pamiętaj! Nie możesz używać tego serwisu do rozpowszechniania lub ściągania materiałów do których nie masz odpowiednich praw lub licencji. Użytkownicy są odpowiedzialni za przestrzeganie tych zasad.

(Disclaimer: None files presented in the directory aren't hosted on servers vortal. Users allow their release. The administrator of site BitNova.info and owner of the server can not be held responsible for what its users post, or any other actions of its users. You may not use this site to distribute or download any material when you do not have the legal rights to do so. It is your own responsibility to adhere to these terms.)
» Zgłaszanie nadużyć / Abuse