Jedyny taki katalog polskich torrentów w sieci. Najlepsze torrenty w jednym miejscu.

Korzystanie ze strony jest darmowe. W przeciwieństwie do konkurencji nie kasujemy kont użytkowników bez ich wyraźnej prośby.


Torrent: Wróg numer jeden / Zero Dark Thirty (2012) [720p.BluRay.x264.DTS.AC3-LLO] [Lektor i Napisy PL]

Wróg numer jeden / Zero Dark Thirty (2012) [720p.BluRay.x264.DTS.AC3-LLO] [Lektor i Napisy PL] torrent
Dodał: aladyn1234
05.06.2013 21:41
Kategoria: Thriller

Rozmiar: 8.02 GB
Seed'ów: (?)
Leecher'ów: (?)
Pobrań: (?)

Kondycja:
 


» Komentarze [0]
» Obserwuj
» Zgłoś plik
Tytuł: Zero Dark Thirty
Polski Tytuł: Wróg numer jeden
====================

Ocena: IMDB - 7.5/10 (109.403), Filmweb - 7.2/10 (22.218)
Produkcja: USA
Gatunek: Thriller
Czas trwania: 150 min.
Premiera: 08.02.2013 - Polska, 19.12.2012 - Świat
Reżyseria: Kathryn Bigelow
Scenariusz: Mark Boal


[opis]
====================
Maya (Jessica Chastain) jest agentką CIA, która po atakach z 11 września zajmuje się przesłuchiwaniem terrorystów oraz analizą ich zeznań. Z informacji podawanych przez więźniów wnioskuje, że drogą do schwytania bin Ladena jest pewien kurier. Mimo sceptycyzmu swoich współpracowników i przełożonych, Maya się nie poddaje i wierzy, że odnalazła kryjówkę najbardziej poszukiwanego terrorysty na świecie.


[obsada]
====================
★ Jessica Chastain ... Maya
★ Jason Clarke ... Dan
★ Joel Edgerton ... Patrick, dowódca drużyny
★ Jennifer Ehle ... Jessica
★ Mark Strong ... George
★ Kyle Chandler ... Joseph Bradley
★ Édgar Ramírez ... Larry z Ground Branch
★ James Gandolfini ... Dyrektor CIA



[dane]
====================
Format : Matroska
Format version : Version 4 / Version 2
File size : 8.02 GiB
Duration : 2h 36mn
Overall bit rate : 7 318 Kbps
Movie name : LLO
Encoded date : UTC 2013-06-05 12:50:46
Writing application : mkvmerge v6.2.0 ('Promised Land') built on Apr 28 2013 12:22:01
Writing library : libebml v1.3.0 + libmatroska v1.4.0

Video
ID : 1
Format : AVC
Format/Info : Advanced Video Codec
Format profile : High@L4.1
Format settings, CABAC : Yes
Format settings, ReFrames : 9 frames
Codec ID : V_MPEG4/ISO/AVC
Duration : 2h 36mn
Bit rate : 5 473 Kbps
Width : 1 280 pixels
Height : 690 pixels
Display aspect ratio : 1.85:1
Frame rate mode : Constant
Frame rate : 23.976 fps
Color space : YUV
Chroma subsampling : 4:2:0
Bit depth : 8 bits
Scan type : Progressive
Bits/(Pixel*Frame) : 0.258
Stream size : 5.72 GiB (71%)
Writing library : x264 core 129 r2230 1cffe9f
Encoding settings : cabac=1 / ref=9 / deblock=1:-3:-3 / analyse=0x3:0x113 / me=umh / subme=9 / psy=1 / psy_rd=1.20:0.05 / mixed_ref=1 / me_range=24 / chroma_me=1 / trellis=1 / 8x8dct=1 / cqm=0 / deadzone=21,11 / fast_pskip=1 / chroma_qp_offset=-3 / threads=18 / lookahead_threads=3 / sliced_threads=0 / nr=0 / decimate=1 / interlaced=0 / bluray_compat=0 / constrained_intra=0 / bframes=10 / b_pyramid=2 / b_adapt=2 / b_bias=0 / direct=3 / weightb=1 / open_gop=0 / weightp=2 / keyint=240 / keyint_min=23 / scenecut=40 / intra_refresh=0 / rc_lookahead=140 / rc=abr / mbtree=1 / bitrate=5473 / ratetol=1.0 / qcomp=0.60 / qpmin=0 / qpmax=69 / qpstep=4 / vbv_maxrate=50000 / vbv_bufsize=50000 / nal_hrd=none / ip_ratio=1.40 / aq=2:0.80
Language : English
Default : Yes
Forced : No

Audio #1
ID : 2
Format : AC-3
Format/Info : Audio Coding 3
Mode extension : CM (complete main)
Format settings, Endianness : Big
Codec ID : A_AC3
Duration : 2h 36mn
Bit rate mode : Constant
Bit rate : 448 Kbps
Channel(s) : 6 channels
Channel positions : Front: L C R, Side: L R, LFE
Sampling rate : 48.0 KHz
Bit depth : 16 bits
Compression mode : Lossy
Stream size : 503 MiB (6%)
Language : Polish
Default : Yes
Forced : No

Audio #2
ID : 3
Format : DTS
Format/Info : Digital Theater Systems
Mode : 16
Format settings, Endianness : Big
Codec ID : A_DTS
Duration : 2h 36mn
Bit rate mode : Constant
Bit rate : 1 509 Kbps
Channel(s) : 6 channels
Channel positions : Front: L C R, Side: L R, LFE
Sampling rate : 48.0 KHz
Bit depth : 24 bits
Compression mode : Lossy
Stream size : 1.65 GiB (21%)
Language : English
Default : No
Forced : No

Text
ID : 4
Format : UTF-8
Codec ID : S_TEXT/UTF8
Codec ID/Info : UTF-8 Plain Text
Language : Polish
Default : No
Forced : No
Ocena użytkowników Help
Działa(0) | Fake(0) | Nie działa(0) | Wymagane hasło(0) | Wirus(0)
Statystyki seed/leech Ostatnio aktualizowane: 2020-01-08 20:31:13 [Aktualizuj]
Napisano: 06.05.2021 00:36
 
Nikt jeszcze nie skomentował tego torrenta... Może Ty to zrobisz?
Oświadczenie: Pliki prezentowane w katalogu nie znajdują się na serwerach wortalu. Użytkownicy zezwolili na ich udostępnienie. Administrator serwisu BitNova.info oraz właściciel serwera nie może ponieść konsekwencji za to co użytkownicy udostępniają i publikują. Pamiętaj! Nie możesz używać tego serwisu do rozpowszechniania lub ściągania materiałów do których nie masz odpowiednich praw lub licencji. Użytkownicy są odpowiedzialni za przestrzeganie tych zasad.

(Disclaimer: None files presented in the directory aren't hosted on servers vortal. Users allow their release. The administrator of site BitNova.info and owner of the server can not be held responsible for what its users post, or any other actions of its users. You may not use this site to distribute or download any material when you do not have the legal rights to do so. It is your own responsibility to adhere to these terms.)
» Zgłaszanie nadużyć / Abuse