Jedyny taki katalog polskich torrentów w sieci. Najlepsze torrenty w jednym miejscu.

Korzystanie ze strony jest darmowe. W przeciwieństwie do konkurencji nie kasujemy kont użytkowników bez ich wyraźnej prośby.


Torrent: Atlas chmur - Cloud Atlas *2012* [BRRip.AC3.XviD adrunrl] [Lektor PL]

Atlas chmur - Cloud Atlas *2012* [BRRip.AC3.XviD adrunrl] [Lektor PL] torrent
Dodał: adrunrl
03.06.2013 07:05
Kategoria: Sci-Fi

Rozmiar: 1.41 GB
Seed'ów: (?)
Leecher'ów: (?)
Pobrań: (?)

Kondycja:
 


» Komentarze [0]
» Obserwuj
» Zgłoś plik
produkcja: Hongkong, Niemcy, Singapur, USA
gatunek: Dramat, Sci-Fi
premiera: 23 listopada 2012 (Polska) 8 września 2012 (świat)
reżyseria: Tom Tykwer, Lana Wachowski, Andy Wachowski
scenariusz: Tom Tykwer, Andy Wachowski, Lana Wachowski

Film oparty na epopei Davida Mitchella. Opowiada o postaciach z różnych epok i zakątków świata, których decyzje i czyny mają duży wpływ na teraźniejszość, przyszłość i przeszłość naszej planety.

Obsada:

Tom Hanks...Dr Henry Goose / Kierownik hotelu / Isaac Sachs / Dermot Hoggins / Sobowtór Cavendisha / Zachry
Halle Berry...Miejscowa / Jocasta Ayrs / Luisa Rey / Stara Indianka / Ovid / Meronym
Jim Broadbent...Kpt. Molyneux / Vyvyan Ayrs / Timothy Cavendish / Koreański muzyk / Prorok
Hugo Weaving...Haskell Moore / Tadeusz Kesselring / Bill Smoke / Siostra Noakes / Mephi, członek zarządu / Stary Georgie
Jim Sturgess...Adam Ewing / Biedny gość hotelowy / Ojciec Megan / Góral / Hae-Joo Chang / Adam / Szwagier Zachry
Doona Bae...Tilda / Mama Megan / Meksykanka / Sonmi-451 / Sonmi-351 / Prostytuująca się Sonmi
Ben Whishaw...Chłopiec pokładowy / Robert Frobisher / Sklepikarz / Georgette / Członek plemienia
Keith David...Kupaka / Joe Napier / An-kor Apis / Prorok

Dane techniczne:

========================================
Format : AVI
Format/Info : Audio Video Interleave
File size : 1.41 GiB
Duration : 2h 52mn
Overall bit rate : 1 172 Kbps
Writing application : VirtualDubMod 1.5.10.2 (build 2540/release)
Writing library : VirtualDubMod build 2540/release

Video
ID : 0
Format : xvid
Codec ID : xvid
Duration : 2h 52mn
Bit rate : 1 035 Kbps
Width : 640 pixels
Height : 272 pixels
Display aspect ratio : 2.35:1
Frame rate : 23.976 fps
Bits/(Pixel*Frame) : 0.248
Stream size : 1.25 GiB (88%)

Audio
ID : 1
Format : AC-3
Format/Info : Audio Coding 3
Mode extension : CM (complete main)
Format settings, Endianness : Big
Codec ID : 2000
Duration : 2h 52mn
Bit rate mode : Constant
Bit rate : 128 Kbps
Channel(s) : 6 channels
Channel positions : Front: L C R, Side: L R, LFE
Sampling rate : 48.0 KHz
Bit depth : 16 bits
Compression mode : Lossy
Stream size : 158 MiB (11%)
Alignment : Split accross interleaves
Interleave, duration : 42 ms (1.00 video frame)
Interleave, preload duration : 1 ms
========================================

Screeny:

User image

Plik sample znajduje się w torrencie.
Ściągnij go pierwszego i zobacz jakość obrazu i dźwięku.
Ocena użytkowników Help
Działa(0) | Fake(0) | Nie działa(0) | Wymagane hasło(0) | Wirus(0)
Statystyki seed/leech Ostatnio aktualizowane: 2021-12-04 13:22:44 [Aktualizuj]
Napisano: 09.12.2021 02:13
 
Nikt jeszcze nie skomentował tego torrenta... Może Ty to zrobisz?
Oświadczenie: Pliki prezentowane w katalogu nie znajdują się na serwerach wortalu. Użytkownicy zezwolili na ich udostępnienie. Administrator serwisu BitNova.info oraz właściciel serwera nie może ponieść konsekwencji za to co użytkownicy udostępniają i publikują. Pamiętaj! Nie możesz używać tego serwisu do rozpowszechniania lub ściągania materiałów do których nie masz odpowiednich praw lub licencji. Użytkownicy są odpowiedzialni za przestrzeganie tych zasad.

(Disclaimer: None files presented in the directory aren't hosted on servers vortal. Users allow their release. The administrator of site BitNova.info and owner of the server can not be held responsible for what its users post, or any other actions of its users. You may not use this site to distribute or download any material when you do not have the legal rights to do so. It is your own responsibility to adhere to these terms.)
» Zgłaszanie nadużyć / Abuse