Jedyny taki katalog polskich torrentów w sieci. Najlepsze torrenty w jednym miejscu.

Korzystanie ze strony jest darmowe. W przeciwieństwie do konkurencji nie kasujemy kont użytkowników bez ich wyraźnej prośby.


Torrent: 360. Połączeni / 360 (2011) [720p.BluRay.X264-SLiSU] [Lektor PL]

360. Połączeni / 360 (2011) [720p.BluRay.X264-SLiSU] [Lektor PL] torrent
Dodał: aladyn1234
06.05.2013 22:48
Kategoria: Romanse

Rozmiar: 5.73 GB
Seed'ów: (?)
Leecher'ów: (?)
Pobrań: (?)

Kondycja:
 


» Komentarze [0]
» Obserwuj
» Zgłoś plik
Tytuł: 360
Polski Tytuł: 360. Połączeni
====================

Ocena: IMDB - 5.9/10 (6.774), Filmweb - 6.3/10 (5.078)
Produkcja: Austria, Brazylia, Francja, Wielka Brytania
Gatunek: Melodramat
Czas trwania: 110 min.
Premiera: 26.12.2012 - Polska, 09.09.2011 - Świat
Reżyseria: Fernando Meirelles
Scenariusz: Peter Morgan

[opis]
====================
"360" to nowoczesna i stylowa panorama związków międzyludzkich, które składają się na wyrazisty, pełen napięcia i autentycznych wzruszeń obraz miłości w XXI wieku. Decyzja przystojnego biznesmena, który zdoła oprzeć się pokusie i pozostaje wierny swojej żonie, wywołuje nieoczekiwaną serię zdarzeń, mających miejsce w tak odległych od siebie zakątkach świata, jak Wiedeń, Paryż, Londyn, Bratysława, Rio i Denver. Każdy z bohaterów zaskakującego "360" przeżywa chwile miłosnych uniesień i dotkliwych dramatów, które równoważy zadziwiająca dawka ironii losu i humoru sytuacyjnego.


[obsada]
====================
★ Anthony Hopkins ... Starszy mężczyzna
★ Ben Foster ... Tyler
★ Rachel Weisz ... Rose
★ Jude Law ... Michael Daly
★ Moritz Bleibtreu ... Sprzedawca
★ Gabriela Marcinkova ... Anna
★ Mark Ivanir
★ Jamel Debbouze ... Algierczyk
★ Juliano Cazarré ... Rui


[dane]
====================
Format : Matroska
Format version : Version 2
File size : 5.73 GiB
Duration : 1h 50mn
Overall bit rate : 7 446 Kbps
Encoded date : UTC 2013-05-06 15:36:55
Writing application : mkvmerge v5.0.1 ('Es ist Sommer') built on Oct 13 2011 06:24:21
Writing library : libebml v1.2.2 + libmatroska v1.3.0

Video
ID : 1
Format : AVC
Format/Info : Advanced Video Codec
Format profile : High@L4.1
Format settings, CABAC : Yes
Format settings, ReFrames : 9 frames
Muxing mode : Header stripping
Codec ID : V_MPEG4/ISO/AVC
Duration : 1h 50mn
Bit rate : 7 000 Kbps
Width : 1 280 pixels
Height : 544 pixels
Display aspect ratio : 2.35:1
Frame rate mode : Constant
Frame rate : 23.976 fps
Color space : YUV
Chroma subsampling : 4:2:0
Bit depth : 8 bits
Scan type : Progressive
Bits/(Pixel*Frame) : 0.419
Stream size : 5.27 GiB (92%)
Title : 360 2011
Writing library : x264 core 128 r2216 198a7ea
Encoding settings : cabac=1 / ref=9 / deblock=1:-3:-3 / analyse=0x3:0x113 / me=tesa / subme=11 / psy=1 / psy_rd=1.05:0.00 / mixed_ref=1 / me_range=16 / chroma_me=1 / trellis=2 / 8x8dct=1 / cqm=0 / deadzone=21,11 / fast_pskip=0 / chroma_qp_offset=-2 / threads=12 / lookahead_threads=2 / sliced_threads=0 / nr=0 / decimate=0 / interlaced=0 / bluray_compat=0 / constrained_intra=0 / bframes=8 / b_pyramid=2 / b_adapt=2 / b_bias=0 / direct=3 / weightb=1 / open_gop=0 / weightp=2 / keyint=250 / keyint_min=23 / scenecut=40 / intra_refresh=0 / rc=2pass / mbtree=0 / bitrate=7000 / ratetol=1.0 / qcomp=0.60 / qpmin=0 / qpmax=69 / qpstep=4 / cplxblur=20.0 / qblur=0.5 / ip_ratio=1.40 / pb_ratio=1.30 / aq=1:0.60
Language : English
Default : Yes
Forced : No

Audio
ID : 2
Format : AC-3
Format/Info : Audio Coding 3
Mode extension : CM (complete main)
Format settings, Endianness : Big
Muxing mode : Header stripping
Codec ID : A_AC3
Duration : 1h 50mn
Bit rate mode : Constant
Bit rate : 448 Kbps
Channel(s) : 6 channels
Channel positions : Front: L C R, Side: L R, LFE
Sampling rate : 48.0 KHz
Bit depth : 16 bits
Compression mode : Lossy
Stream size : 353 MiB (6%)
Language : Polish
Default : Yes
Forced : No
Ocena użytkowników Help
Działa(0) | Fake(0) | Nie działa(0) | Wymagane hasło(0) | Wirus(0)
Statystyki seed/leech Ostatnio aktualizowane: 2017-09-08 16:14:59 [Aktualizuj]
Napisano: 19.05.2021 03:50
 
Nikt jeszcze nie skomentował tego torrenta... Może Ty to zrobisz?
Oświadczenie: Pliki prezentowane w katalogu nie znajdują się na serwerach wortalu. Użytkownicy zezwolili na ich udostępnienie. Administrator serwisu BitNova.info oraz właściciel serwera nie może ponieść konsekwencji za to co użytkownicy udostępniają i publikują. Pamiętaj! Nie możesz używać tego serwisu do rozpowszechniania lub ściągania materiałów do których nie masz odpowiednich praw lub licencji. Użytkownicy są odpowiedzialni za przestrzeganie tych zasad.

(Disclaimer: None files presented in the directory aren't hosted on servers vortal. Users allow their release. The administrator of site BitNova.info and owner of the server can not be held responsible for what its users post, or any other actions of its users. You may not use this site to distribute or download any material when you do not have the legal rights to do so. It is your own responsibility to adhere to these terms.)
» Zgłaszanie nadużyć / Abuse