Jedyny taki katalog polskich torrentów w sieci. Najlepsze torrenty w jednym miejscu.

Korzystanie ze strony jest darmowe. W przeciwieństwie do konkurencji nie kasujemy kont użytkowników bez ich wyraźnej prośby.

Torrent: Nawiedzony pałac - The Haunted Palace *1963* [BRRip.XVID.AC3][ENG][Multi Subtitles][Napisy PL][AT-TEAM]

Nawiedzony pałac - The Haunted Palace *1963* [BRRip.XVID.AC3][ENG][Multi Subtitles][Napisy PL][AT-TEAM] torrent
Dodał: djpax
01.04.2013 02:54
Kategoria: Horror

Rozmiar: 0.99 GB
Seed'ów: 1
Leecher'ów: 0
Pobrań: 0

Kondycja:
 


» Komentarze [0]
» Obserwuj
» Zgłoś plik
gatunek: Horror
produkcja: USA
premiera: 28 sierpnia 1963 (świat)
reżyseria: Roger Corman
scenariusz:Charles Beaumont
Ratings: 6,6/10 from 2 313 users

Filmweb: 7.5/10
http://www.filmweb.pl/film/Nawiedzony+pa%C5%82ac-1963-106247

IMDB: 6.6/10
http://www.imdb.com/title/tt0057128/?ref_=fn_al_tt_1

Opis:

Film oparty na powieści H.P. Lovecrafta pt. "Przypadek Charlesa Dextera Warda".
Główny bohater, Charles Dexter Ward, wraz z żoną Ann przybywa do posiadłości swojego dziadka,
który w 1765 roku został uznany za czarownika i spalony na stosie przez mieszkańców Arkham.
Joseph Curwen rzeczywiście wykorzystywał magię do pracy nad wyhodowaniem łączników z mityczną przeszłością.
Teraz jego duch postanawia wniknąć w ciało wnuka i skłonić go do dokończenia eksperymentu.
Opętany Charles w podziemiach pałacu odkrywa laboratorium dziadka.
Wkrótce okazuje się jednak, że duch Curwena chce skłonić wnuka również do tego, aby złożył w ofierze żonę.

Obsada:

Vincent Price ... Charles Dexter Ward / Joseph Curwen
Debra Paget ... Ann Ward
Lon Chaney Jr. ... Simon Orne (as Lon Chaney)
Frank Maxwell ... Dr. Marinus Willet / Priam Willet
Leo Gordon ... Edgar Weeden / Ezra Weeden
Elisha Cook Jr. ... Peter Smith / Micah Smith (as Elisha Cook)
John Dierkes ... Benjamin West / Jacob West (as John Dierkies)
Milton Parsons ... Jabez Hutchinson
Cathie Merchant ... Hester Tillinghast
Guy Wilkerson ... Gideon Leach / Mr. Leach
I. Stanford Jolley ... Carmody, Coachman (as Stanford Jolley)
Harry Ellerbe ... Minister
Barboura Morris ... Mrs. Weeden
Darlene Lucht ... Miss Fitch
Bruno VeSota ... Bruno, the Bartender (as Bruno Ve Sota)

Info:

Source bluray
Language: English 5.1
Subtitles: Polish, Czech, English, French, Italy, Portugese, Portugese-BR, Spanish

Synchro AT-TEAM

Format : AVI
Format/Info : Audio Video Interleave
File size : 1 016 MiB
Duration : 1h 27mn
Overall bit rate : 1 631 Kbps
Writing application : Lavf52.94.0

Video
ID : 0
Format : xvid
Codec ID : xvid
Duration : 1h 27mn
Bit rate : 1 300 Kbps
Width : 720 pixels
Height : 306 pixels
Display aspect ratio : 2.35:1
Frame rate : 24.000 fps
Bits/(Pixel*Frame) : 0.246
Stream size : 810 MiB (80%)

Audio
ID : 1
Format : AC-3
Format/Info : Audio Coding 3
Codec ID : 00001000-0000-0020-8000-00AA00389B71
Duration : 1h 27mn
Bit rate : 320 Kbps
Channel(s) : 6 channels
Channel positions : Front: L C R, Side: L R, LFE
Sampling rate : 48.0 KHz
Bit depth : 16 bits
Compression mode : Lossy
Stream size : 199 MiB (20%)
Interleave, duration : 32 ms (0.77 video frame)
Interleave, preload duration : 32 ms

Screen's:

User image
User image
User image

Trailer
Ocena użytkowników Help
Działa(0) | Fake(0) | Nie działa(0) | Wymagane hasło(0) | Wirus(0)
Statystyki seed/leech Ostatnio aktualizowane: 2013-04-01 02:54:58 [Aktualizuj]
Tagi horror 1963


Napisano: 06.02.2023 19:32
 
Nikt jeszcze nie skomentował tego torrenta... Może Ty to zrobisz?
Oświadczenie: Pliki prezentowane w katalogu nie znajdują się na serwerach wortalu. Użytkownicy zezwolili na ich udostępnienie. Administrator serwisu BitNova.info oraz właściciel serwera nie może ponieść konsekwencji za to co użytkownicy udostępniają i publikują. Pamiętaj! Nie możesz używać tego serwisu do rozpowszechniania lub ściągania materiałów do których nie masz odpowiednich praw lub licencji. Użytkownicy są odpowiedzialni za przestrzeganie tych zasad.

(Disclaimer: None files presented in the directory aren't hosted on servers vortal. Users allow their release. The administrator of site BitNova.info and owner of the server can not be held responsible for what its users post, or any other actions of its users. You may not use this site to distribute or download any material when you do not have the legal rights to do so. It is your own responsibility to adhere to these terms.)
» Zgłaszanie nadużyć / Abuse