Jedyny taki katalog polskich torrentów w sieci. Najlepsze torrenty w jednym miejscu.

Korzystanie ze strony jest darmowe. W przeciwieństwie do konkurencji nie kasujemy kont użytkowników bez ich wyraźnej prośby.


Torrent: Atlas chmur - Cloud Atlas (2012) [BRRip.RMVB] [Lektor PL]

Atlas chmur - Cloud Atlas (2012) [BRRip.RMVB] [Lektor PL] torrent
Dodał: Anonimowy
20.03.2013 14:36
Kategoria: Sci-fi

Rozmiar: 561.65 MB
Seed'ów: 0
Leecher'ów: 0
Pobrań: 0

Kondycja:
 


» Komentarze [0]
» Obserwuj
» Zgłoś plik
Gatunek.: Dramat, Sci-Fi
Premiera.: 23 listopada 2012 (Polska), 8 września 2012 (Świat)
Produkcja.: Hongkong, Niemcy, Singapur, USA
Reżyseria.: Tom Tykwer, Lana Wachowski, Andy Wachowski
Scenariusz.: Tom Tykwer, Andy Wachowski, Lana Wachowski

OBSADA:
================
Tom Hanks ... Dr Henry Goose / Kierownik hotelu / Isaac Sachs / Dermot Hoggins / Sobowtór Cavendisha / Zachry
Halle Berry ... Miejscowa / Jocasta Ayrs / Luisa Rey / Stara Indianka / Ovid / Meronym
Jim Broadbent ... Kpt. Molyneux / Vyvyan Ayrs / Timothy Cavendish / Koreański muzyk / Prorok
Hugo Weaving ... Haskell Moore / Tadeusz Kesselring / Bill Smoke / Siostra Noakes / Mephi, członek zarządu / Stary Georgie
Jim Sturgess ... Adam Ewing / Biedny gość hotelowy / Ojciec Megan / Góral / Hae-Joo Chang / Adam / Szwagier Zachry
Doona Bae ... Tilda / Mama Megan / Meksykanka / Sonmi-451 / Sonmi-351 / Prostytuująca się Sonmi
Ben Whishaw ... Chłopiec pokładowy / Robert Frobisher / Sklepikarz / Georgette / Członek plemienia
Keith David ... Kupaka / Joe Napier / An-kor Apis / Prorok

OPIS:
=================
Największe filmowe widowisko 2012 roku, oparte na bestsellerowej epopei Davida Mitchella, którego styl krytycy porównują do estetyki dzieł Vladimira Nabokova, a oryginalną wizję świata do spostrzeżeń takich mistrzów jak Umberto Eco, Haruki Murakami i Philip K. Dick.
W filmie śledzimy losy postaci z różnych epok i zakątków świata, których najbardziej błahe decyzje i czyny mają daleko idący wpływ na teraźniejszość, przyszłość, a nawet przeszłość naszej planety. "Atlas chmur" jest ucztą nie tylko dla wielbicieli zapierających dech w piersiach opowieści przygodowych, ale także spostrzegawczych miłośników X Muzy. Każda z gwiazd występuje w filmie w kilku nierozpoznawalnych na pierwszy rzut oka wcieleniach, dając popis wirtuozerskiej gry i ironicznego dystansu do swojego dotychczasowego wizerunku.


INFO O FILMIE:
=================
http://www.filmweb.pl/film/Atlas+chmur-2012-580801
http://www.imdb.com/title/tt1371111/


Format : RealMedia
File size : 562 MiB
Duration : 2h 52mn
Overall bit rate : 449 Kbps
Video #1
ID : 1
Format : RealVideo 4
Codec ID : RV40
Codec ID/Info : Based on AVC (H.264), Real Player 9
Duration : 2h 52mn
Bit rate : 384 Kbps
Width : 720 pixels
Height : 304 pixels
Display aspect ratio : 2.35:1
Frame rate : 23.976 fps
Bits/(Pixel*Frame) : 0.073
Stream size : 473 MiB (84%)
Audio #0
ID : 0
Format : Cooker
Codec ID : cook
Codec ID/Info : Based on G.722.1, Real Player 6
Duration : 2h 52mn
Bit rate : 64.1 Kbps
Channel(s) : 2 channels
Sampling rate : 44.1 KHz
Bit depth : 16 bits
Stream size : 78.9 MiB (14%)


przekonwertowane z tej wersji

Atlas chmur - Cloud Atlas *2012* [480p] [BDRip.XviD] [AC3] [5.1] [Lektor PL]
Ocena użytkowników Help
Działa(0) | Fake(0) | Nie działa(0) | Wymagane hasło(0) | Wirus(0)
Statystyki seed/leech Ostatnio aktualizowane: 2021-08-29 09:13:00 [Aktualizuj]
Napisano: 27.10.2021 15:43
 
Nikt jeszcze nie skomentował tego torrenta... Może Ty to zrobisz?
Oświadczenie: Pliki prezentowane w katalogu nie znajdują się na serwerach wortalu. Użytkownicy zezwolili na ich udostępnienie. Administrator serwisu BitNova.info oraz właściciel serwera nie może ponieść konsekwencji za to co użytkownicy udostępniają i publikują. Pamiętaj! Nie możesz używać tego serwisu do rozpowszechniania lub ściągania materiałów do których nie masz odpowiednich praw lub licencji. Użytkownicy są odpowiedzialni za przestrzeganie tych zasad.

(Disclaimer: None files presented in the directory aren't hosted on servers vortal. Users allow their release. The administrator of site BitNova.info and owner of the server can not be held responsible for what its users post, or any other actions of its users. You may not use this site to distribute or download any material when you do not have the legal rights to do so. It is your own responsibility to adhere to these terms.)
» Zgłaszanie nadużyć / Abuse