Jedyny taki katalog polskich torrentów w sieci. Najlepsze torrenty w jednym miejscu.

Korzystanie ze strony jest darmowe. W przeciwieństwie do konkurencji nie kasujemy kont użytkowników bez ich wyraźnej prośby.


Torrent: Silent Hill: Apokalipsa 3D (OU) - Silent Hill: Revelation *2012* [mini-HD.1080p.Over-Under.AC3.BluRay.x264-LEON 345][Lektor PL]

Silent Hill: Apokalipsa 3D (OU) - Silent Hill: Revelation *2012* [mini-HD.1080p.Over-Under.AC3.BluRay.x264-LEON 345][Lektor PL] torrent
Dodał: Anonimowy
10.03.2013 21:50
Kategoria: Horror

Rozmiar: 3.87 GB
Seed'ów: (?)
Leecher'ów: (?)
Pobrań: (?)

Kondycja:
 


» Komentarze [0]
» Obserwuj
» Zgłoś plik
Film w wersji 3D Over-Under.
Do odtworzenia filmu WYMAGANY odpowiedni sprzęt (TV 3D)

gatunek: Horror
produkcja: Francja Kanada USA
premiera: 2 listopada 2012 (Polska) 25 października 2012 (świat)
premiera bluray 3D: 26 lutego 2013

Heather Mason przez całe życie ucieka przed niebezpiecznymi siłami, których nie może wytłumaczyć. W dniu swoich osiemnastych urodzin nawiedzona kolejnymi koszmarami i zniknięciem ojca, odkrywa że nie jest osobą, za którą się dotychczas uważała. To odkrycie wprowadza ją w głąb świata pełnego demonów. Jeżeli ich nie przezwycięży, utknie w Silent Hill na zawsze.

Kopie 3D SBS (OU) mini-HD, to kopie specjalistyczne o dużej rozdzielczości (1920 x 1080), które mimo niewielkiego ciężaru (w MB) zachowują wysoką jakość.

Szczególnie polecam tym, którzy chcą zaoszczędzić czas i przestrzeń na dysku.

Taką kopię można także bez problemu nagrać na zwykłą płytę DVD lub przenieś na zewnętrzną pamięć.

Ważne jest również to, że tą wersję mogą obejrzeć osoby, których sprzęt ma ograniczenia w postaci obsługi tylko formatu FAT, jak wiadomo taki format obsłuży filmy, które mają maksymalnie 4GB, więc w tym przypadku ta wersja jest też dla nich.

TĄ KOPIE WYKONAŁ LEON 345 SPECJALNIE DLA WAS

General

Complete name : D: WstawkaSILENT_HILL_REVELATION3D(LEON_345)SILENT_HILL_REVELATION3D(LEON_345).mkv
Format : Matroska
Format version : Version 2
File size : 3.87 GiB
Duration : 1h 34mn
Overall bit rate mode : Variable
Overall bit rate : 5 850 Kbps
Encoded date : UTC 2013-03-06 23:06:22
Writing application : mkvmerge v5.7.0 ('The Whirlwind') built on Jul 8 2012 20:08:51
Writing library : libebml v1.2.3 + libmatroska v1.3.0

Video
ID : 1
Format : AVC
Format/Info : Advanced Video Codec
Format profile : High@L4.0
Format settings, CABAC : Yes
Format settings, ReFrames : 2 frames
Codec ID : V_MPEG4/ISO/AVC
Duration : 1h 34mn
Bit rate mode : Variable
Bit rate : 5 403 Kbps
Maximum bit rate : 15.0 Mbps
Width : 1 920 pixels
Height : 1 080 pixels
Display aspect ratio : 16:9 (2.40:1)
Frame rate mode : Constant
Frame rate : 23.976 fps
Color space : YUV
Chroma subsampling : 4:2:0
Bit depth : 8 bits
Scan type : Progressive
Bits/(Pixel*Frame) : 0.109
Stream size : 3.50 GiB (90%)
Title : Rip by Leon 345 encoding 2 pass
Writing library : x264 core 129 r2230 1cffe9f
Default : Yes
Forced : No

Audio
ID : 2
Format : AC-3
Format/Info : Audio Coding 3
Mode extension : CM (complete main)
Format settings, Endianness : Big
Codec ID : A_AC3
Duration : 1h 34mn
Bit rate mode : Constant
Bit rate : 448 Kbps
Channel(s) : 6 channels
Channel positions : Front: L C R, Side: L R, LFE
Sampling rate : 48.0 KHz
Bit depth : 16 bits
Compression mode : Lossy
Delay relative to video : 4ms
Stream size : 304 MiB (8%)
Title : AC3 5.1 Lektor PL
Language : Polish
Default : Yes
Forced : No

Text
ID : 3
Format : UTF-8
Codec ID : S_TEXT/UTF8
Codec ID/Info : UTF-8 Plain Text
Default : Yes
Forced : Yes



Source [thx]:
A/V -3D Blu-ray AVC DTS-HD MA 5.1-CHD
Polski lektor - DVD 9 CiNEMAET
Ocena użytkowników Help
Działa(0) | Fake(0) | Nie działa(0) | Wymagane hasło(0) | Wirus(0)
Statystyki seed/leech Ostatnio aktualizowane: 2021-09-04 14:58:24 [Aktualizuj]
Napisano: 27.01.2022 19:13
 
Nikt jeszcze nie skomentował tego torrenta... Może Ty to zrobisz?
Oświadczenie: Pliki prezentowane w katalogu nie znajdują się na serwerach wortalu. Użytkownicy zezwolili na ich udostępnienie. Administrator serwisu BitNova.info oraz właściciel serwera nie może ponieść konsekwencji za to co użytkownicy udostępniają i publikują. Pamiętaj! Nie możesz używać tego serwisu do rozpowszechniania lub ściągania materiałów do których nie masz odpowiednich praw lub licencji. Użytkownicy są odpowiedzialni za przestrzeganie tych zasad.

(Disclaimer: None files presented in the directory aren't hosted on servers vortal. Users allow their release. The administrator of site BitNova.info and owner of the server can not be held responsible for what its users post, or any other actions of its users. You may not use this site to distribute or download any material when you do not have the legal rights to do so. It is your own responsibility to adhere to these terms.)
» Zgłaszanie nadużyć / Abuse