Jedyny taki katalog polskich torrentów w sieci. Najlepsze torrenty w jednym miejscu.

Korzystanie ze strony jest darmowe. W przeciwieństwie do konkurencji nie kasujemy kont użytkowników bez ich wyraźnej prośby.


Torrent: Odwróceni zakochani / Upside Down (2012) [720p.BluRay.X264-SLiSU] [Lektor PL]

Odwróceni zakochani / Upside Down (2012) [720p.BluRay.X264-SLiSU] [Lektor PL] torrent
Dodał: aladyn1234
01.02.2013 08:00
Kategoria: Romanse

Rozmiar: 3.04 GB
Seed'ów: (?)
Leecher'ów: (?)
Pobrań: (?)

Kondycja:
 


» Komentarze [0]
» Obserwuj
» Zgłoś plik
Tytuł: Upside Down / Odwróceni zakochani
======================

Gatunek: Melodramat
Produkcja: Francja, Kanada
Premiera: 7 września 2012 (Polska) 22 sierpnia 2012 (świat)
Reżyseria: Juan Diego Solanas
Scenariusz: Juan Diego SolanasSantiago AmigorenaHarris Demel
Czas trwania: 1h 47mn


[opis]
=================
Porywające love story osadzone w oszałamiających wizualnie realiach alternatywnego wszechświata. Zjawiskowa Kirsten Dunst ("Spiderman", "Melancholia") i znakomity Jim Sturgess ("Niepokonani") zakochani miłością niemożliwą. Dwie planety, dwoje ukochanych i granica, której nie wolno przekraczać. Ale miłość nie respektuje zakazów. Adam jest zwykłym chłopakiem w niezwykłym wszechświecie. Wiedzie skromne życie wypełnione pracą i marzeniami o Ewie - dziewczynie, którą poznał przed laty i o której nie potrafi zapomnieć. Ewa pochodzi z równoległego świata, który znajduje się tuż nad światem Adama. Ta planeta rządząca się swoimi prawami, własną grawitacją, jest niedostępna dla Adama i jemu podobnych. Pewnego dnia chłopak dowiaduje się, że istnieje bardzo ryzykowny, nielegalny sposób przedostania się do świata Ewy. Będzie musiał złamać wszelkie normy i zasady, przeciwstawić się prawom fizyki i zaryzykować życie wkradając się do zakazanego świata, by odnaleźć miłość swojego życia…

[obsada]
===================
Kirsten Dunst ... Eden
Jim Sturgess ... Adam
Neil Napier ... Agent ochrony
Jayne Heitmeyer ... Kierowniczka
Agnieshka Wnorowska ... Tancerka na sali balowej
James Kidnie ... Lagavullan

[dane]
=====================
Format : Matroska
Format version : Version 2
File size : 3.04 GiB
Duration : 1h 47mn
Overall bit rate : 4 042 Kbps
Encoded date : UTC 2013-01-31 13:49:17
Writing application : mkvmerge v5.0.1 ('Es ist Sommer') built on Oct 13 2011 06:24:21
Writing library : libebml v1.2.2 + libmatroska v1.3.0

Video
ID : 1
Format : AVC
Format/Info : Advanced Video Codec
Format profile : High@L4.1
Format settings, CABAC : Yes
Format settings, ReFrames : 5 frames
Muxing mode : Header stripping
Codec ID : V_MPEG4/ISO/AVC
Duration : 1h 47mn
Bit rate : 3 578 Kbps
Width : 1 280 pixels
Height : 576 pixels
Display aspect ratio : 2.222
Frame rate mode : Constant
Frame rate : 23.976 fps
Color space : YUV
Chroma subsampling : 4:2:0
Bit depth : 8 bits
Scan type : Progressive
Bits/(Pixel*Frame) : 0.202
Stream size : 2.70 GiB (89%)
Title : (m)iCRO(S)iZED(D)OWNLOADS
Writing library : x264 core 129 r2230 1cffe9f
Encoding settings : cabac=1 / ref=5 / deblock=1:0:0 / analyse=0x3:0x113 / me=umh / subme=8 / psy=1 /

psy_rd=1.00:0.00 / mixed_ref=1 / me_range=16 / chroma_me=1 / trellis=1 / 8x8dct=1 / cqm=0 / deadzone=21,11 / fast_pskip=1 /

chroma_qp_offset=-2 / threads=12 / lookahead_threads=2 / sliced_threads=0 / nr=0 / decimate=1 / interlaced=0 /

bluray_compat=0 / constrained_intra=0 / bframes=3 / b_pyramid=2 / b_adapt=2 / b_bias=0 / direct=3 / weightb=1 / open_gop=0

/ weightp=2 / keyint=250 / keyint_min=23 / scenecut=40 / intra_refresh=0 / rc_lookahead=50 / rc=crf / mbtree=1 / crf=21.0 /

qcomp=0.60 / qpmin=0 / qpmax=69 / qpstep=4 / ip_ratio=1.40 / aq=1:1.00
Language : English
Default : Yes
Forced : No

Audio
ID : 2
Format : AC-3
Format/Info : Audio Coding 3
Mode extension : CM (complete main)
Format settings, Endianness : Big
Muxing mode : Header stripping
Codec ID : A_AC3
Duration : 1h 47mn
Bit rate mode : Constant
Bit rate : 384 Kbps
Channel(s) : 6 channels
Channel positions : Front: L C R, Side: L R, LFE
Sampling rate : 48.0 KHz
Bit depth : 16 bits
Compression mode : Lossy
Stream size : 296 MiB (9%)
Default : Yes
Forced : No
Ocena użytkowników Help
Działa(0) | Fake(0) | Nie działa(0) | Wymagane hasło(0) | Wirus(0)
Statystyki seed/leech Ostatnio aktualizowane: 2021-04-17 09:10:56 [Aktualizuj]
Napisano: 11.05.2021 09:33
 
Nikt jeszcze nie skomentował tego torrenta... Może Ty to zrobisz?
Oświadczenie: Pliki prezentowane w katalogu nie znajdują się na serwerach wortalu. Użytkownicy zezwolili na ich udostępnienie. Administrator serwisu BitNova.info oraz właściciel serwera nie może ponieść konsekwencji za to co użytkownicy udostępniają i publikują. Pamiętaj! Nie możesz używać tego serwisu do rozpowszechniania lub ściągania materiałów do których nie masz odpowiednich praw lub licencji. Użytkownicy są odpowiedzialni za przestrzeganie tych zasad.

(Disclaimer: None files presented in the directory aren't hosted on servers vortal. Users allow their release. The administrator of site BitNova.info and owner of the server can not be held responsible for what its users post, or any other actions of its users. You may not use this site to distribute or download any material when you do not have the legal rights to do so. It is your own responsibility to adhere to these terms.)
» Zgłaszanie nadużyć / Abuse