Jedyny taki katalog polskich torrentów w sieci. Najlepsze torrenty w jednym miejscu.

Korzystanie ze strony jest darmowe. W przeciwieństwie do konkurencji nie kasujemy kont użytkowników bez ich wyraźnej prośby.


Torrent: Kościół (1989) / Chiesa, La [DVDrip][NapisyPL][ENG]

Kościół (1989) / Chiesa, La [DVDrip][NapisyPL][ENG] torrent
Dodał: hostcom
21.01.2013 19:58
Kategoria: Horror

Rozmiar: 332.90 MB
Seed'ów: 4
Leecher'ów: 5
Pobrań: 9

Kondycja:
 


» Komentarze [0]
» Obserwuj
» Zgłoś plik
Fabuła filmu rozpoczyna się w średniowieczu, gdzie grupa uzbrojonych "krzyżowców" (Satanic Knights) pod pretekstem herezji i paktowania z diabłem, dokonuje rzezi na mieszkańcach jeden z wiosek. Ofiary krwawej masakry pochowano w masowym grobie, na miejscu którego jeden z kapłanów nakazał wybudować ogromny kościół, a wszystko po to by na wieki pozbyć się szatańskich mocy.

Format : RealMedia
File size : 333 MiB
Duration : 1h 41mn
Overall bit rate : 447 Kbps

Video
ID : 1
Format : RealVideo 4
Codec ID : RV40
Codec ID/Info : Based on AVC (H.264), Real Player 9
Duration : 1h 41mn
Bit rate : 382 Kbps
Width : 320 pixels
Height : 240 pixels
Display aspect ratio : 4:3
Frame rate : 25.000 fps
Bits/(Pixel*Frame) : 0.199
Stream size : 279 MiB (84%)

Audio
ID : 0
Format : Cooker
Codec ID : cook
Codec ID/Info : Based on G.722.1, Real Player 6
Duration : 1h 41mn
Bit rate : 64.1 Kbps
Channel(s) : 2 channels
Sampling rate : 44.1 KHz
Bit depth : 16 bits
Stream size : 46.7 MiB (14%)



Gatunek: horror,
Rok Produkcji: 1989
Premiera Polska: 10 Marzec 1989 (Piątek)
Czas Trwania: 102 minut
Scenariusz: Dario Argento, Franco Ferrini, Michele Soavi
Rezyseria: Michele Soavi
Obsada: Barbara Cupisti, Tomas Arana, Asia Argento, Hugh Quarshie, Feodor Chaliapin Jr., Roberto Caruso, Alina De Simone, Olivia Cupisti,
Ocena użytkowników Help
Działa(0) | Fake(0) | Nie działa(0) | Wymagane hasło(0) | Wirus(0)
Statystyki seed/leech Ostatnio aktualizowane: 2013-02-17 15:49:54 [Aktualizuj]
Napisano: 28.11.2021 07:09
 
Nikt jeszcze nie skomentował tego torrenta... Może Ty to zrobisz?
Oświadczenie: Pliki prezentowane w katalogu nie znajdują się na serwerach wortalu. Użytkownicy zezwolili na ich udostępnienie. Administrator serwisu BitNova.info oraz właściciel serwera nie może ponieść konsekwencji za to co użytkownicy udostępniają i publikują. Pamiętaj! Nie możesz używać tego serwisu do rozpowszechniania lub ściągania materiałów do których nie masz odpowiednich praw lub licencji. Użytkownicy są odpowiedzialni za przestrzeganie tych zasad.

(Disclaimer: None files presented in the directory aren't hosted on servers vortal. Users allow their release. The administrator of site BitNova.info and owner of the server can not be held responsible for what its users post, or any other actions of its users. You may not use this site to distribute or download any material when you do not have the legal rights to do so. It is your own responsibility to adhere to these terms.)
» Zgłaszanie nadużyć / Abuse