Jedyny taki katalog polskich torrentów w sieci. Najlepsze torrenty w jednym miejscu.

Korzystanie ze strony jest darmowe. W przeciwieństwie do konkurencji nie kasujemy kont użytkowników bez ich wyraźnej prośby.


Torrent: Kopalnie króla Salomona (1985) / King Solomon's Mines[DVDRIP][LEKTORPL]

Kopalnie króla Salomona (1985) / King Solomon's Mines[DVDRIP][LEKTORPL] torrent
Dodał: hostcom
21.01.2013 19:56
Kategoria: Przygodowe

Rozmiar: 347.42 MB
Seed'ów: (?)
Leecher'ów: (?)
Pobrań: (?)

Kondycja:
 


» Komentarze [0]
» Obserwuj
» Zgłoś plik
Awanturnik i poszukiwacz przygód Allan Quatermain zostaje wynajęty przez Jesse Huston w celu przeprowadzenia wyprawy w niebezpieczne rejony Afryki i odnalezienia tam jej ojca, poszukiwacza legendarnych Kopalni Króla Salomona. Ślad prowadzi do Domu Izydy - gdzie ojciec miał obejrzeć ciekawą figurkę z symbolami kananejskimi...

Format : RealMedia
File size : 347 MiB
Duration : 1h 35mn
Overall bit rate : 499 Kbps

Video
ID : 1
Format : RealVideo 4
Codec ID : RV40
Codec ID/Info : Based on AVC (H.264), Real Player 9
Duration : 1h 35mn
Bit rate : 435 Kbps
Width : 720 pixels
Height : 304 pixels
Display aspect ratio : 2.35:1
Frame rate : 25.000 fps
Bits/(Pixel*Frame) : 0.079
Stream size : 298 MiB (86%)

Audio
ID : 0
Format : Cooker
Codec ID : cook
Codec ID/Info : Based on G.722.1, Real Player 6
Duration : 1h 35mn
Bit rate : 64.1 Kbps
Channel(s) : 2 channels
Sampling rate : 44.1 KHz
Bit depth : 16 bits
Stream size : 43.9 MiB (13%)



Gatunek: przygodowy,
Rok Produkcji: 1985
Premiera Polska: 22 Listopad 1985 (Piątek)
Czas Trwania: 100 minut
Scenariusz: Gene Quintano, James R. Silke
Rezyseria: J. Lee Thompson
Obsada: Richard Chamberlain, Herbert Lom, John Rhys-Davies, Ken Gampu, June Buthelezi, Sam Williams, Shai K. Ophir, Mick Lesley,
Ocena użytkowników Help
Działa(0) | Fake(0) | Nie działa(0) | Wymagane hasło(0) | Wirus(0)
Statystyki seed/leech Ostatnio aktualizowane: 2018-10-07 16:02:28 [Aktualizuj]
Napisano: 14.04.2021 06:01
 
Nikt jeszcze nie skomentował tego torrenta... Może Ty to zrobisz?
Oświadczenie: Pliki prezentowane w katalogu nie znajdują się na serwerach wortalu. Użytkownicy zezwolili na ich udostępnienie. Administrator serwisu BitNova.info oraz właściciel serwera nie może ponieść konsekwencji za to co użytkownicy udostępniają i publikują. Pamiętaj! Nie możesz używać tego serwisu do rozpowszechniania lub ściągania materiałów do których nie masz odpowiednich praw lub licencji. Użytkownicy są odpowiedzialni za przestrzeganie tych zasad.

(Disclaimer: None files presented in the directory aren't hosted on servers vortal. Users allow their release. The administrator of site BitNova.info and owner of the server can not be held responsible for what its users post, or any other actions of its users. You may not use this site to distribute or download any material when you do not have the legal rights to do so. It is your own responsibility to adhere to these terms.)
» Zgłaszanie nadużyć / Abuse