Jedyny taki katalog polskich torrentów w sieci. Najlepsze torrenty w jednym miejscu.

Korzystanie ze strony jest darmowe. W przeciwieństwie do konkurencji nie kasujemy kont użytkowników bez ich wyraźnej prośby.


Torrent: Box of Shadows (2011) [DVDrip][LEKTORPL-IVO]

Box of Shadows (2011) [DVDrip][LEKTORPL-IVO] torrent
Dodał: hostcom
21.01.2013 16:15
Kategoria: Sci-fi

Rozmiar: 273.38 MB
Seed'ów: (?)
Leecher'ów: (?)
Pobrań: (?)

Kondycja:
 


» Komentarze [0]
» Obserwuj
» Zgłoś plik
gatunek: Thriller, Sci-Fi,
produkcja: USA,
premiera: 30 lipca 2011 (świat) 2011-07-30
reżyseria: Mauro Borrelli,
scenariusz: Mauro Borrelli, Scott Svatos,


Młody student Kyle (Aaron Dean Eisenberg) zarabia ekstra pieniądze sprzątając domy innych. Pewnego razu, podczas pracy napotyka w piwnicy na starożytną trumnę. Myśląc, że może zarobić na niej łatwą kasę, zabiera ją do siebie. Okazuje się, że nie jest to zwykła trumna, bo posiada mechaniczne przekładnie i ukrytą wewnątrz pozytywkę. Kyle wraz z grupą przyjaciół starają się dowiedzieć czegoś więcej o tajemniczym znalezisku. Wkrótce odkrywają, że skrzynia zbudowana została w XV

Format : RealMedia
File size : 273 MiB
Duration : 1h 30mn
Overall bit rate : 412 Kbps
Video
ID : 1
Format : RealVideo 4
Codec ID : RV40
Codec ID/Info : Based on AVC (H.264), Real Player 9
Duration : 1h 30mn
Bit rate : 348 Kbps
Width : 640 pixels
Height : 272 pixels
Display aspect ratio : 2.35:1
Frame rate : 23.976 fps
Bits/(Pixel*Frame) : 0.083
Stream size : 227 MiB (83%)
Audio
ID : 0
Format : Cooker
Codec ID : cook
Codec ID/Info : Based on G.722.1, Real Player 6
Duration : 1h 30mn
Bit rate : 64.1 Kbps
Channel(s) : 2 channels
Sampling rate : 44.1 KHz
Bit depth : 16 bits
Stream size : 41.7 MiB (15%)
Ocena użytkowników Help
Działa(0) | Fake(0) | Nie działa(0) | Wymagane hasło(0) | Wirus(0)
Statystyki seed/leech Ostatnio aktualizowane: 2019-08-07 18:24:26 [Aktualizuj]
Napisano: 27.10.2021 03:04
 
Nikt jeszcze nie skomentował tego torrenta... Może Ty to zrobisz?
Oświadczenie: Pliki prezentowane w katalogu nie znajdują się na serwerach wortalu. Użytkownicy zezwolili na ich udostępnienie. Administrator serwisu BitNova.info oraz właściciel serwera nie może ponieść konsekwencji za to co użytkownicy udostępniają i publikują. Pamiętaj! Nie możesz używać tego serwisu do rozpowszechniania lub ściągania materiałów do których nie masz odpowiednich praw lub licencji. Użytkownicy są odpowiedzialni za przestrzeganie tych zasad.

(Disclaimer: None files presented in the directory aren't hosted on servers vortal. Users allow their release. The administrator of site BitNova.info and owner of the server can not be held responsible for what its users post, or any other actions of its users. You may not use this site to distribute or download any material when you do not have the legal rights to do so. It is your own responsibility to adhere to these terms.)
» Zgłaszanie nadużyć / Abuse