Jedyny taki katalog polskich torrentów w sieci. Najlepsze torrenty w jednym miejscu.

Korzystanie ze strony jest darmowe. W przeciwieństwie do konkurencji nie kasujemy kont użytkowników bez ich wyraźnej prośby.


Torrent: Gwiezdne wrota (1994) / Stargate [DVDrip][LektorPL]

Gwiezdne wrota (1994) / Stargate [DVDrip][LektorPL] torrent
Dodał: hostcom
21.01.2013 16:01
Kategoria: Sci-fi

Rozmiar: 451.43 MB
Seed'ów: (?)
Leecher'ów: (?)
Pobrań: (?)

Kondycja:
 


» Komentarze [0]
» Obserwuj
» Zgłoś plik
gatunek: Przygodowy, Sci-Fi,
produkcja: Francja, USA,
premiera: 3 marca 1995 (Polska) 1995-03-03 28 października 1994 (świat) 1994-10-28
reżyseria: Roland Emmerich,
scenariusz: Roland Emmerich, Dean Devlin,

Pokryty hieroglifami tajemniczy pierścień odnaleziony na początku wieku w Egipcie okazuje się być Gwiezdnymi Wrotami - portalem stworzonym przez obcą cywilizację. Daniel Jackson (James Spader), młody naukowiec, który wyjaśnia zagadkę pozaziemskiego pochodzenia i przeznaczenia pierścienia, wraz z wojskową ekspedycją dowodzoną przez pułkownika Jacka O'Neila (Kurt Russell) decydują się na przejście przez tajemniczy pierścień. Żaden z nich nie wie, dokąd prowadzą Wrota. Gwiezdne wrota zostały uhonorowane Nagrodą Saturna dla Najlepszego Filmu Science Fiction w 1995 roku.

Format : RealMedia
File size : 451 MiB
Duration : 2h 4mn
Overall bit rate : 496 Kbps

Video
ID : 1
Format : RealVideo 4
Codec ID : RV40
Codec ID/Info : Based on AVC (H.264), Real Player 9
Duration : 2h 4mn
Bit rate : 432 Kbps
Width : 640 pixels
Height : 272 pixels
Display aspect ratio : 2.35:1
Frame rate : 25.000 fps
Bits/(Pixel*Frame) : 0.099
Stream size : 386 MiB (85%)

Audio
ID : 0
Format : Cooker
Codec ID : cook
Codec ID/Info : Based on G.722.1, Real Player 6
Duration : 2h 4mn
Bit rate : 64.1 Kbps
Channel(s) : 2 channels
Sampling rate : 44.1 KHz
Bit depth : 16 bits
Stream size : 57.2 MiB (13%)
Ocena użytkowników Help
Działa(0) | Fake(0) | Nie działa(0) | Wymagane hasło(0) | Wirus(0)
Statystyki seed/leech Ostatnio aktualizowane: 2021-04-08 18:19:48 [Aktualizuj]
Napisano: 17.10.2021 15:45
 
Nikt jeszcze nie skomentował tego torrenta... Może Ty to zrobisz?
Oświadczenie: Pliki prezentowane w katalogu nie znajdują się na serwerach wortalu. Użytkownicy zezwolili na ich udostępnienie. Administrator serwisu BitNova.info oraz właściciel serwera nie może ponieść konsekwencji za to co użytkownicy udostępniają i publikują. Pamiętaj! Nie możesz używać tego serwisu do rozpowszechniania lub ściągania materiałów do których nie masz odpowiednich praw lub licencji. Użytkownicy są odpowiedzialni za przestrzeganie tych zasad.

(Disclaimer: None files presented in the directory aren't hosted on servers vortal. Users allow their release. The administrator of site BitNova.info and owner of the server can not be held responsible for what its users post, or any other actions of its users. You may not use this site to distribute or download any material when you do not have the legal rights to do so. It is your own responsibility to adhere to these terms.)
» Zgłaszanie nadużyć / Abuse