Jedyny taki katalog polskich torrentów w sieci. Najlepsze torrenty w jednym miejscu.

Korzystanie ze strony jest darmowe. W przeciwieństwie do konkurencji nie kasujemy kont użytkowników bez ich wyraźnej prośby.


Torrent: Gwiezdne wrota: Arka prawdy (2008) / Stargate: The Ark of Truth [DVDrip][LektorPL]

Gwiezdne wrota: Arka prawdy (2008) / Stargate: The Ark of Truth [DVDrip][LektorPL] torrent
Dodał: hostcom
21.01.2013 15:59
Kategoria: Sci-fi

Rozmiar: 336.01 MB
Seed'ów: (?)
Leecher'ów: (?)
Pobrań: (?)

Kondycja:
 


» Komentarze [0]
» Obserwuj
» Zgłoś plik
gatunek: Przygodowy, Sci-Fi,
produkcja: Kanada, USA,
premiera: 11 marca 2008 (świat) 2008-03-11
reżyseria: Robert C. Cooper,
scenariusz: Robert C. Cooper,


Gdy Jednynka poszukuje starożytnego artefaktu Pradawnych dzięki któremu uda im się zniszczyć Ori dowiadują się o nadciągających dodatkowych sił Ori przez superwrota w kierunku ziemi. Daniel odkrywa że Arka Prawdy najprawdopodobniej znajduję się w galaktyce Ori, dlatego Jedynka wyrusza do niej na pokładzie Odysei w ramach uprzedzenia ataku Ori. Tymczasem IOA ma własny plan więc Jedynka w odległej galaktyce musi się zmierzyć z dwoma wrogami.

Format : RealMedia
File size : 336 MiB
Duration : 1h 41mn
Overall bit rate : 452 Kbps

Video
ID : 1
Format : RealVideo 4
Codec ID : RV40
Codec ID/Info : Based on AVC (H.264), Real Player 9
Duration : 1h 41mn
Bit rate : 388 Kbps
Width : 640 pixels
Height : 352 pixels
Display aspect ratio : 16:9
Frame rate : 29.970 fps
Bits/(Pixel*Frame) : 0.057
Stream size : 283 MiB (84%)

Audio
ID : 0
Format : Cooker
Codec ID : cook
Codec ID/Info : Based on G.722.1, Real Player 6
Duration : 1h 41mn
Bit rate : 64.1 Kbps
Channel(s) : 2 channels
Sampling rate : 44.1 KHz
Bit depth : 16 bits
Stream size : 46.7 MiB (14%)
Ocena użytkowników Help
Działa(0) | Fake(0) | Nie działa(0) | Wymagane hasło(0) | Wirus(0)
Statystyki seed/leech Ostatnio aktualizowane: 2019-08-07 08:49:50 [Aktualizuj]
Napisano: 27.10.2021 02:42
 
Nikt jeszcze nie skomentował tego torrenta... Może Ty to zrobisz?
Oświadczenie: Pliki prezentowane w katalogu nie znajdują się na serwerach wortalu. Użytkownicy zezwolili na ich udostępnienie. Administrator serwisu BitNova.info oraz właściciel serwera nie może ponieść konsekwencji za to co użytkownicy udostępniają i publikują. Pamiętaj! Nie możesz używać tego serwisu do rozpowszechniania lub ściągania materiałów do których nie masz odpowiednich praw lub licencji. Użytkownicy są odpowiedzialni za przestrzeganie tych zasad.

(Disclaimer: None files presented in the directory aren't hosted on servers vortal. Users allow their release. The administrator of site BitNova.info and owner of the server can not be held responsible for what its users post, or any other actions of its users. You may not use this site to distribute or download any material when you do not have the legal rights to do so. It is your own responsibility to adhere to these terms.)
» Zgłaszanie nadużyć / Abuse