Jedyny taki katalog polskich torrentów w sieci. Najlepsze torrenty w jednym miejscu.

Korzystanie ze strony jest darmowe. W przeciwieństwie do konkurencji nie kasujemy kont użytkowników bez ich wyraźnej prośby.


Torrent: Gwiezdne wrota: Continuum (2008) / Stargate: Continuum [DVDrip][LektorPL]

Gwiezdne wrota: Continuum (2008) / Stargate: Continuum [DVDrip][LektorPL] torrent
Dodał: hostcom
21.01.2013 15:58
Kategoria: Sci-fi

Rozmiar: 308.24 MB
Seed'ów: (?)
Leecher'ów: (?)
Pobrań: (?)

Kondycja:
 


» Komentarze [0]
» Obserwuj
» Zgłoś plik
gatunek: Sci-Fi,
produkcja: Kanada, USA,
premiera: 29 lipca 2008 (świat) 2008-07-29
reżyseria: Martin Wood,
scenariusz: Brad Wright,

Gdy jedynka próbuje dokonać egzekucji Baala ostatniego władcy systemu. Teal'c i Vala w tajemniczy sposób znikają.... Samantha, Daniel i Mitchell cofają się do przeszłości a mianowicie do świata gdzie historia została zmieniona: program Stargate została wymazana z historii. Kiedy załoga próbuje przekonać władze o tym co się stało, na orbicie Ziemi pojawiają się statki Goa'uld pod wodzą przebiegłego Baala i jego królowej Katesh i Teal'c-a. Jedynka musi odnaleźć wrota i naprawić stan rzeczy zanim Ziemia zostanie podbita przez Goa'uld.

Format : RealMedia
File size : 308 MiB
Duration : 1h 34mn
Overall bit rate : 448 Kbps

Video
ID : 1
Format : RealVideo 4
Codec ID : RV40
Codec ID/Info : Based on AVC (H.264), Real Player 9
Duration : 1h 34mn
Bit rate : 384 Kbps
Width : 640 pixels
Height : 352 pixels
Display aspect ratio : 16:9
Frame rate : 25.000 fps
Bits/(Pixel*Frame) : 0.068
Stream size : 260 MiB (84%)

Audio
ID : 0
Format : Cooker
Codec ID : cook
Codec ID/Info : Based on G.722.1, Real Player 6
Duration : 1h 34mn
Bit rate : 64.1 Kbps
Channel(s) : 2 channels
Sampling rate : 44.1 KHz
Bit depth : 16 bits
Stream size : 43.3 MiB (14%)
Ocena użytkowników Help
Działa(0) | Fake(0) | Nie działa(0) | Wymagane hasło(0) | Wirus(0)
Statystyki seed/leech Ostatnio aktualizowane: 2019-01-20 10:27:12 [Aktualizuj]
Napisano: 25.09.2021 21:48
 
Nikt jeszcze nie skomentował tego torrenta... Może Ty to zrobisz?
Oświadczenie: Pliki prezentowane w katalogu nie znajdują się na serwerach wortalu. Użytkownicy zezwolili na ich udostępnienie. Administrator serwisu BitNova.info oraz właściciel serwera nie może ponieść konsekwencji za to co użytkownicy udostępniają i publikują. Pamiętaj! Nie możesz używać tego serwisu do rozpowszechniania lub ściągania materiałów do których nie masz odpowiednich praw lub licencji. Użytkownicy są odpowiedzialni za przestrzeganie tych zasad.

(Disclaimer: None files presented in the directory aren't hosted on servers vortal. Users allow their release. The administrator of site BitNova.info and owner of the server can not be held responsible for what its users post, or any other actions of its users. You may not use this site to distribute or download any material when you do not have the legal rights to do so. It is your own responsibility to adhere to these terms.)
» Zgłaszanie nadużyć / Abuse