Jedyny taki katalog polskich torrentów w sieci. Najlepsze torrenty w jednym miejscu.

Korzystanie ze strony jest darmowe. W przeciwieństwie do konkurencji nie kasujemy kont użytkowników bez ich wyraźnej prośby.


Torrent: Quatermain i zaginione Miasto Złota (1986) / Allan Quatermain and the Lost City of Gold [DVDrip][LektorPL]

Quatermain i zaginione Miasto Złota (1986) / Allan Quatermain and the Lost City of Gold [DVDrip][LektorPL] torrent
Dodał: hostcom
20.01.2013 21:34
Kategoria: Przygodowe

Rozmiar: 344.25 MB
Seed'ów: (?)
Leecher'ów: (?)
Pobrań: (?)

Kondycja:
 


» Komentarze [0]
» Obserwuj
» Zgłoś plik
Kontynuacja przygód bohaterów filmu "Kopalnie króla Salomona". Allan Quatermain, podróżnik i poszukiwacz przygód wyrusza w niebezpieczną podróż ze swoją narzeczoną Jesse, półdzikim afrykańskim wojownikiem i zwariowanym, tchórzliwym mistykiem. Ich celem jest odnalezienie brata Quatermaina i legendarnego Miasta Złota...

gatunek: Komedia Przygodowy
produkcja: USA
premiera: 18 grudnia 1986 (świat)
reżyseria: Gary Nelson
scenariusz: Jerry Goldsmith Gene Quintano


Format : RealMedia
File size : 344 MiB
Duration : 1h 35mn
Overall bit rate : 495 Kbps

Video
ID : 1
Format : RealVideo 4
Codec ID : RV40
Codec ID/Info : Based on AVC (H.264), Real Player 9
Duration : 1h 35mn
Bit rate : 431 Kbps
Width : 704 pixels
Height : 320 pixels
Display aspect ratio : 2.2:1
Frame rate : 25.000 fps
Bits/(Pixel*Frame) : 0.076
Stream size : 294 MiB (85%)

Audio
ID : 0
Format : Cooker
Codec ID : cook
Codec ID/Info : Based on G.722.1, Real Player 6
Duration : 1h 35mn
Bit rate : 64.1 Kbps
Channel(s) : 2 channels
Sampling rate : 44.1 KHz
Bit depth : 16 bits
Stream size : 43.8 MiB (13%)
Ocena użytkowników Help
Działa(0) | Fake(0) | Nie działa(0) | Wymagane hasło(0) | Wirus(0)
Statystyki seed/leech Ostatnio aktualizowane: 2018-06-22 00:25:27 [Aktualizuj]
Napisano: 14.04.2021 06:39
 
Nikt jeszcze nie skomentował tego torrenta... Może Ty to zrobisz?
Oświadczenie: Pliki prezentowane w katalogu nie znajdują się na serwerach wortalu. Użytkownicy zezwolili na ich udostępnienie. Administrator serwisu BitNova.info oraz właściciel serwera nie może ponieść konsekwencji za to co użytkownicy udostępniają i publikują. Pamiętaj! Nie możesz używać tego serwisu do rozpowszechniania lub ściągania materiałów do których nie masz odpowiednich praw lub licencji. Użytkownicy są odpowiedzialni za przestrzeganie tych zasad.

(Disclaimer: None files presented in the directory aren't hosted on servers vortal. Users allow their release. The administrator of site BitNova.info and owner of the server can not be held responsible for what its users post, or any other actions of its users. You may not use this site to distribute or download any material when you do not have the legal rights to do so. It is your own responsibility to adhere to these terms.)
» Zgłaszanie nadużyć / Abuse