Jedyny taki katalog polskich torrentów w sieci. Najlepsze torrenty w jednym miejscu.

Korzystanie ze strony jest darmowe. W przeciwieństwie do konkurencji nie kasujemy kont użytkowników bez ich wyraźnej prośby.


Torrent: Odwróceni zakochani (2012) / Upside Down [DVDRIP][NAPISYPL][ENG]

Odwróceni zakochani (2012) / Upside Down [DVDRIP][NAPISYPL][ENG] torrent
Dodał: hostcom
20.01.2013 09:51
Kategoria: Sci-fi

Rozmiar: 451.10 MB
Seed'ów: (?)
Leecher'ów: (?)
Pobrań: (?)

Kondycja:
 


» Komentarze [1]
» Obserwuj
» Zgłoś plik
Historia dwojga kochanków, Adama i Eden, z dwóch różnych planet w alternatywnej rzeczywistości.

gatunek: Melodramat,
produkcja: Francja, Kanada,
premiera: 7 września 2012 (Polska) 2012-09-07 22 sierpnia 2012 (świat) 2012-08-22
reżyseria: Juan Diego Solanas,
scenariusz: Juan Diego Solanas, Santiago Amigorena, Harris Demel,

Format : RealMedia
File size : 451 MiB
Duration : 1h 47mn
Overall bit rate : 568 Kbps

Video
ID : 1
Format : RealVideo 4
Codec ID : RV40
Codec ID/Info : Based on AVC (H.264), Real Player 9
Duration : 1h 47mn
Bit rate : 504 Kbps
Width : 720 pixels
Height : 320 pixels
Display aspect ratio : 2.25:1
Frame rate : 23.976 fps
Bits/(Pixel*Frame) : 0.091
Stream size : 389 MiB (86%)

Audio
ID : 0
Format : Cooker
Codec ID : cook
Codec ID/Info : Based on G.722.1, Real Player 6
Duration : 1h 47mn
Bit rate : 64.1 Kbps
Channel(s) : 2 channels
Sampling rate : 44.1 KHz
Bit depth : 16 bits
Stream size : 49.4 MiB (11%)

Ocena użytkowników Help
Działa(0) | Fake(0) | Nie działa(0) | Wymagane hasło(0) | Wirus(0)
Statystyki seed/leech Ostatnio aktualizowane: 2021-01-10 08:59:23 [Aktualizuj]
eminem1234
eminem1234
Napisano: 2013-03-17 00:22
 
warto zobaczyć 7/10
Oświadczenie: Pliki prezentowane w katalogu nie znajdują się na serwerach wortalu. Użytkownicy zezwolili na ich udostępnienie. Administrator serwisu BitNova.info oraz właściciel serwera nie może ponieść konsekwencji za to co użytkownicy udostępniają i publikują. Pamiętaj! Nie możesz używać tego serwisu do rozpowszechniania lub ściągania materiałów do których nie masz odpowiednich praw lub licencji. Użytkownicy są odpowiedzialni za przestrzeganie tych zasad.

(Disclaimer: None files presented in the directory aren't hosted on servers vortal. Users allow their release. The administrator of site BitNova.info and owner of the server can not be held responsible for what its users post, or any other actions of its users. You may not use this site to distribute or download any material when you do not have the legal rights to do so. It is your own responsibility to adhere to these terms.)
» Zgłaszanie nadużyć / Abuse