Jedyny taki katalog polskich torrentów w sieci. Najlepsze torrenty w jednym miejscu.

Korzystanie ze strony jest darmowe. W przeciwieństwie do konkurencji nie kasujemy kont użytkowników bez ich wyraźnej prośby.

Torrent: Efekt motyla - The Butterfly Effect *2004* [DVDRip.XviD] [Lektor PL]

Efekt motyla - The Butterfly Effect *2004* [DVDRip.XviD] [Lektor PL] torrent
Dodał: victor123
03.01.2013 10:38
Kategoria: Dramat

Rozmiar: 700.71 MB
Seed'ów: (?)
Leecher'ów: (?)
Pobrań: (?)

Kondycja:
 


» Komentarze [0]
» Obserwuj
» Zgłoś plik
Efekt motyla - The Butterfly Effect *2004* [DVDRip.XviD] [Lektor PL]

produkcja: USA
gatunek: dramat, science-fiction, thriller
reżyseria: Eric Bress, J. Mackye Gruber
czas trwania: 120 min.

Opis

Czy ruch motylego skrzydełka w Nowym Jorku może spowodować huragan w Japonii? Losy Evana Treborna (Ashton Kutcher) są ilustracją tej niezwykłej teorii. Młody człowiek odkrywa, że, wykorzystując odziedziczone po ojcu szczególne zdolności, w niewytłumaczalny sposób może przenieść się do świata własnych wspomnień i, ingerując w nie, odwrócić bieg swojego niezbyt udanego życia. Drobne zmiany, jakich dokonuje Evan w przeszłości wpływają również na losy jego najbliższych. I to z katastrofalnym skutkiem. Nowe życie w coraz bardziej niebezpieczny sposób wymyka mu się spod kontroli i aby ratować siebie i tych, których kocha, Evan musi rozwikłać mroczną tajemnicę z dzieciństwa...

Obsada:

Ashton Kutcher - Evan Treborn
Amy Smart - Kayleigh Miller
Elden Henson - Lenny Treborn
Melora Walters - Andrea Treborn
Eric Stoltz - George Miller
William Lee Scott - Tommy Miller

Dane techniczne:

Format : AVI
Format/Info : Audio Video Interleave
File size : 701 MiB
Duration : 1h 49mn
Overall bit rate mode : Variable
Overall bit rate : 898 Kbps
Writing application : VirtualDubMod 1.5.4.1 (build 2178/release)
Writing library : VirtualDubMod build 2178/release

Video
ID : 0
Format : MPEG-4 Visual
Format profile : Advanced Simple@L5
Format settings, BVOP : 1
Format settings, QPel : No
Format settings, GMC : No warppoints
Format settings, Matrix : Custom
Codec ID : XVID
Codec ID/Hint : XviD
Duration : 1h 49mn
Bit rate : 720 Kbps
Width : 560 pixels
Height : 320 pixels
Display aspect ratio : 16:9
Frame rate : 25.000 fps
Color space : YUV
Chroma subsampling : 4:2:0
Bit depth : 8 bits
Scan type : Progressive
Compression mode : Lossy
Bits/(Pixel*Frame) : 0.161
Stream size : 561 MiB (80%)
Writing library : XviD 1.2.0.dev47 (UTC 2006-11-01)

Audio
ID : 1
Format : MPEG Audio
Format version : Version 1
Format profile : Layer 3
Mode : Joint stereo
Mode extension : MS Stereo
Codec ID : 55
Codec ID/Hint : MP3
Duration : 1h 49mn
Bit rate mode : Variable
Bit rate : 166 Kbps
Nominal bit rate : 176 Kbps
Channel(s) : 2 channels
Sampling rate : 48.0 KHz
Compression mode : Lossy
Stream size : 129 MiB (18%)
Alignment : Aligned on interleaves
Interleave, duration : 24 ms (0.60 video frame)
Interleave, preload duration : 111 ms
Writing library : LAME3.97
Encoding settings : -m j -V 4 -q 2 -lowpass 18.6 --abr 176
Language : Polish
Ocena użytkowników Help
Działa(0) | Fake(0) | Nie działa(0) | Wymagane hasło(0) | Wirus(0)
Statystyki seed/leech Ostatnio aktualizowane: 2022-11-08 20:21:27 [Aktualizuj]


Napisano: 08.02.2023 08:21
 
Nikt jeszcze nie skomentował tego torrenta... Może Ty to zrobisz?
Oświadczenie: Pliki prezentowane w katalogu nie znajdują się na serwerach wortalu. Użytkownicy zezwolili na ich udostępnienie. Administrator serwisu BitNova.info oraz właściciel serwera nie może ponieść konsekwencji za to co użytkownicy udostępniają i publikują. Pamiętaj! Nie możesz używać tego serwisu do rozpowszechniania lub ściągania materiałów do których nie masz odpowiednich praw lub licencji. Użytkownicy są odpowiedzialni za przestrzeganie tych zasad.

(Disclaimer: None files presented in the directory aren't hosted on servers vortal. Users allow their release. The administrator of site BitNova.info and owner of the server can not be held responsible for what its users post, or any other actions of its users. You may not use this site to distribute or download any material when you do not have the legal rights to do so. It is your own responsibility to adhere to these terms.)
» Zgłaszanie nadużyć / Abuse