Jedyny taki katalog polskich torrentów w sieci. Najlepsze torrenty w jednym miejscu.

Korzystanie ze strony jest darmowe. W przeciwieństwie do konkurencji nie kasujemy kont użytkowników bez ich wyraźnej prośby.


Torrent: Trudna sprzedaż - The Selling *2011* [DVDRip.XviD] [Lektor PL]

Trudna sprzedaż - The Selling *2011* [DVDRip.XviD] [Lektor PL] torrent
Dodał: victor123
22.12.2012 17:28
Kategoria: Horror

Rozmiar: 1.25 GB
Seed'ów: (?)
Leecher'ów: (?)
Pobrań: (?)

Kondycja:
 


» Komentarze [0]
» Obserwuj
» Zgłoś plik
Trudna sprzedaż - The Selling *2011* [DVDRip.XviD] [Lektor PL]

Produkcja: USA
Gatunek: Horror, Komedia
Czas trwania: 85 min.
Premiera: 29 kwietnia 2011 (Świat)
Reżyseria: Emily Lou
Scenariusz: Gabriel Diani

Ops:

Richard Scarry (Gabriel Diani) jest doświadczonym i wyrachowanym agentem nieruchomości. W środowisku słynie z tego, że potrafi sprzedać każdy budynek. Pewnego dnia staje jednak przed niezwykle trudnym zadaniem. Daje się skusić wizji dużego zysku i zobowiązuje się sprzedać pewną tajemniczą nieruchomość. Wkrótce zdaje sobie sprawę, że budynek jest nawiedzony. W środku słychać dziwne głosy, a ze ścian płynie... krew. Scarry musi sprzedać dom jak najszybciej, inaczej złośliwe duchy zniszczą mu życie... Parodia horrorów o nawiedzonych domach. Autorem scenariusza i zarazem odtwórcą głównej roli jest Gabriel Diani.

Obsada:

Gabriel Diani Gabriel Diani: Richard Scarry
Janet Varney: Mary Best
Jonathan Klein: Dave Ross
Etta Devine: Ginger Sparks
Barry Bostwick: Ojciec Jimmy
Alina Phelan: Młoda żona

Dane techniczne:

Format : AVI
Format/Info : Audio Video Interleave
File size : 1.25 GiB
Duration : 1h 25mn
Overall bit rate : 2 077 Kbps
Writing library : VirtualDub build 32817/release

Video
ID : 0
Format : MPEG-4 Visual
Format profile : Advanced Simple@L5
Format settings, BVOP : 2
Format settings, QPel : No
Format settings, GMC : No warppoints
Format settings, Matrix : Default (H.263)
Muxing mode : Packed bitstream
Codec ID : XVID
Codec ID/Hint : XviD
Duration : 1h 25mn
Bit rate : 1 875 Kbps
Width : 720 pixels
Height : 304 pixels
Display aspect ratio : 2.35:1
Frame rate : 25.000 fps
Original frame rate : 23.976 fps
Color space : YUV
Chroma subsampling : 4:2:0
Bit depth : 8 bits
Scan type : Progressive
Compression mode : Lossy
Bits/(Pixel*Frame) : 0.343
Stream size : 1.12 GiB (90%)
Writing library : XviD 64

Audio
ID : 1
Format : AC-3
Format/Info : Audio Coding 3
Mode extension : CM (complete main)
Codec ID : 2000
Duration : 1h 25mn
Bit rate mode : Constant
Bit rate : 192 Kbps
Channel(s) : 2 channels
Channel positions : Front: L R
Sampling rate : 48.0 KHz
Bit depth : 16 bits
Compression mode : Lossy
Stream size : 118 MiB (9%)
Alignment : Aligned on interleaves
Interleave, duration : 40 ms (1.00 video frame)
Interleave, preload duration : 512 ms

Ocena użytkowników Help
Działa(0) | Fake(0) | Nie działa(0) | Wymagane hasło(0) | Wirus(0)
Statystyki seed/leech Ostatnio aktualizowane: 2019-12-23 21:19:55 [Aktualizuj]
Napisano: 09.05.2021 07:23
 
Nikt jeszcze nie skomentował tego torrenta... Może Ty to zrobisz?
Oświadczenie: Pliki prezentowane w katalogu nie znajdują się na serwerach wortalu. Użytkownicy zezwolili na ich udostępnienie. Administrator serwisu BitNova.info oraz właściciel serwera nie może ponieść konsekwencji za to co użytkownicy udostępniają i publikują. Pamiętaj! Nie możesz używać tego serwisu do rozpowszechniania lub ściągania materiałów do których nie masz odpowiednich praw lub licencji. Użytkownicy są odpowiedzialni za przestrzeganie tych zasad.

(Disclaimer: None files presented in the directory aren't hosted on servers vortal. Users allow their release. The administrator of site BitNova.info and owner of the server can not be held responsible for what its users post, or any other actions of its users. You may not use this site to distribute or download any material when you do not have the legal rights to do so. It is your own responsibility to adhere to these terms.)
» Zgłaszanie nadużyć / Abuse