Jedyny taki katalog polskich torrentów w sieci. Najlepsze torrenty w jednym miejscu.

Korzystanie ze strony jest darmowe. W przeciwieństwie do konkurencji nie kasujemy kont użytkowników bez ich wyraźnej prośby.


Torrent: Detektyw Dee i zagadka upiornego ognia - Di Renjie *2010* [BRRip.XviD] [Lektor PL]

Detektyw Dee i zagadka upiornego ognia - Di Renjie *2010* [BRRip.XviD] [Lektor PL] torrent
Dodał: victor123
09.12.2012 10:26
Kategoria: Kryminalne

Rozmiar: 708.97 MB
Seed'ów: (?)
Leecher'ów: (?)
Pobrań: (?)

Kondycja:
 


» Komentarze [0]
» Obserwuj
» Zgłoś plik
Detektyw Dee i zagadka upiornego ognia - Di Renjie *2010* [BRRip.XviD] [Lektor PL]

gatunek: Kryminał, Thriller, Akcja
produkcja: Chiny, Hongkong
premiera: 5 września 2010 (świat)
reżyseria: Hark Tsui
scenariusz: Kuo-Fu ChenJialu Zhang
muzyka: Peter Kam
zdjęcia: Chi Ying Chan , Chor Keung Chan
na podstawie: Robert van Gulik (powieść)

Opis:

Rok 690, kilka tygodni przed wielką ceremonią intronizacji cesarzowej Wu Zeitan (Carina Lau), pierwszej i jedynej kobiety na chińskim tronie. Cały kraj jest przygotowywany na ten dzień już od kilku lat. Dekorowanie Cesarskiego Pałacu oraz stolicy Luoyang dobiega końca, ostatnie przysmaki na bankiet dowożone są z każdego zakątka kraju, ambasadorowie z całego świata zaczynają przybywać na uroczystość. Jedyną rzeczą, która nie jest jeszcze skończona na tę okoliczność, to wysoka na 60 metrów statua Buddy. Kiedy wydaje się, że już nic nie może się wydarzyć złego, seria niewyjaśnionych śmierci zasiewa panikę w mieście. Sprawę pogarsza fakt, iż denaci to lojalni ludzie z otoczenia cesarzowej. Zdruzgotana tymi wydarzeniami Wu Zeitan postanawia dowiedzieć się kto stoi za tymi morderstwami, zanim zakłóci to samą ceremonię objęcia tronu. Nie mając wyboru wzywa jedyną osobę, która może rozwiązać tę zagadkę - osławionego detektywa Dee (Andy Lau), który został wygnany 8 lat wcześniej. Oddany detektyw powraca do cesarskiej służby. Wraz z Shangguan Wan'er (Bingbing Li) - mistrzynią sztuki wojennej oraz sądowym oficerem Pei Donglai (Chao Deng) wyruszają, by rozwikłać tajemnicę serii morderstw. Na swojej drodze będą musieli stawić czoła dziwnym i niebezpiecznym przygodom.

Obsada:

Carina Lau ... Empress Wu Zetian
Bingbing Li ... Shangguan Wan'er
Chao Deng ... Pei Donglai
Tony Leung Ka Fai ... Shatuo

Dane techniczne:

Format : AVI
Format/Info : Audio Video Interleave
File size : 709 MiB
Duration : 2h 3mn
Overall bit rate : 802 Kbps
Writing library : VirtualDub build 32817/release

Video
ID : 0
Format : MPEG-4 Visual
Format profile : Advanced Simple@L5
Format settings, BVOP : 2
Format settings, QPel : No
Format settings, GMC : No warppoints
Format settings, Matrix : Default (H.263)
Muxing mode : Packed bitstream
Codec ID : XVID
Codec ID/Hint : XviD
Duration : 2h 3mn
Bit rate : 665 Kbps
Width : 624 pixels
Height : 256 pixels
Display aspect ratio : 2.40:1
Frame rate : 24.000 fps
Color space : YUV
Chroma subsampling : 4:2:0
Bit depth : 8 bits
Scan type : Progressive
Compression mode : Lossy
Bits/(Pixel*Frame) : 0.173
Stream size : 587 MiB (83%)
Writing library : XviD 64

Audio
ID : 1
Format : MPEG Audio
Format version : Version 1
Format profile : Layer 3
Codec ID : 55
Codec ID/Hint : MP3
Duration : 2h 3mn
Bit rate mode : Constant
Bit rate : 128 Kbps
Channel(s) : 2 channels
Sampling rate : 48.0 KHz
Compression mode : Lossy
Delay relative to video : 12ms
Stream size : 113 MiB (16%)
Alignment : Split accross interleaves
Interleave, duration : 42 ms (1.00 video frame)
Interleave, preload duration : 500 ms
Ocena użytkowników Help
Działa(0) | Fake(0) | Nie działa(0) | Wymagane hasło(0) | Wirus(0)
Statystyki seed/leech Ostatnio aktualizowane: 2021-02-27 21:17:05 [Aktualizuj]
Napisano: 27.11.2021 18:52
 
Nikt jeszcze nie skomentował tego torrenta... Może Ty to zrobisz?
Oświadczenie: Pliki prezentowane w katalogu nie znajdują się na serwerach wortalu. Użytkownicy zezwolili na ich udostępnienie. Administrator serwisu BitNova.info oraz właściciel serwera nie może ponieść konsekwencji za to co użytkownicy udostępniają i publikują. Pamiętaj! Nie możesz używać tego serwisu do rozpowszechniania lub ściągania materiałów do których nie masz odpowiednich praw lub licencji. Użytkownicy są odpowiedzialni za przestrzeganie tych zasad.

(Disclaimer: None files presented in the directory aren't hosted on servers vortal. Users allow their release. The administrator of site BitNova.info and owner of the server can not be held responsible for what its users post, or any other actions of its users. You may not use this site to distribute or download any material when you do not have the legal rights to do so. It is your own responsibility to adhere to these terms.)
» Zgłaszanie nadużyć / Abuse