Jedyny taki katalog polskich torrentów w sieci. Najlepsze torrenty w jednym miejscu.

Korzystanie ze strony jest darmowe. W przeciwieństwie do konkurencji nie kasujemy kont użytkowników bez ich wyraźnej prośby.


Torrent: Czarnobyl Reaktor Strachu - Chernobyl Diaries *2012* [BRRip.XviD] [Lektor PL]

Czarnobyl Reaktor Strachu - Chernobyl Diaries *2012* [BRRip.XviD] [Lektor PL] torrent
Dodał: victor123
29.11.2012 13:23
Kategoria: Horror

Rozmiar: 699.76 MB
Seed'ów: (?)
Leecher'ów: (?)
Pobrań: (?)

Kondycja:
 


» Komentarze [0]
» Obserwuj
» Zgłoś plik
Czarnobyl Reaktor Strachu - Chernobyl Diaries *2012* [BRRip.XviD] [Lektor PL]

Produkcja: USA
Gatunek: Horror
Czas trwania: 84 min.
Premiera: 25.05.2012 - Świat, 22.06.2012 - Polska
Reżyseria: Bradley Parker
Scenariusz: Shane Van Dyke, Carey Van Dyke

OPIS:

Podczas podróży po Europie sześcioro Amerykanów postanawia zakosztować nietypowej turystyki i odwiedzić miasto Prypeć na Ukrainie. Wynajmują miejscowego przewodnika i jadą zwiedzać miasto wymarłe po wybuchu elektrowni atomowej w Czarnobylu.

OBSADA:

Ingrid Bolsø Berdal ... Zoe
Dimitri Diatchenko ... Uri
Olivia Dudley ... Natalie
Devin Kelley ... Amanda
Jesse McCartney ... Chris
Nathan Phillips ... Michael
Jonathan Sadowski ... Paul
Alex Feldman ... Goldshmidt

Dane techniczne:

Format : AVI
Format/Info : Audio Video Interleave
File size : 700 MiB
Duration : 1h 24mn
Overall bit rate : 1 156 Kbps
Writing application : VirtualDubMod 1.5.10.3 | www.virtualdub-fr.org || (build 2550/release)
Writing library : VirtualDub build 32817/release

Video
ID : 0
Format : MPEG-4 Visual
Format profile : Advanced Simple@L5
Format settings, BVOP : 2
Format settings, QPel : No
Format settings, GMC : No warppoints
Format settings, Matrix : Default (MPEG)
Muxing mode : Packed bitstream
Codec ID : XVID
Codec ID/Hint : XviD
Duration : 1h 24mn
Bit rate : 1 018 Kbps
Width : 656 pixels
Height : 352 pixels
Display aspect ratio : 1.864
Frame rate : 25.000 fps
Original frame rate : 23.976 fps
Color space : YUV
Chroma subsampling : 4:2:0
Bit depth : 8 bits
Scan type : Progressive
Compression mode : Lossy
Bits/(Pixel*Frame) : 0.176
Stream size : 616 MiB (88%)
Writing library : XviD 72

Audio
ID : 1
Format : AC-3
Format/Info : Audio Coding 3
Mode extension : CM (complete main)
Codec ID : 2000
Duration : 1h 24mn
Bit rate mode : Constant
Bit rate : 128 Kbps
Channel(s) : 2 channels
Channel positions : Front: L R
Sampling rate : 48.0 KHz
Bit depth : 16 bits
Compression mode : Lossy
Stream size : 77.4 MiB (11%)
Alignment : Aligned on interleaves
Interleave, duration : 40 ms (1.00 video frame)
Interleave, preload duration : 512 ms
Ocena użytkowników Help
Działa(0) | Fake(0) | Nie działa(0) | Wymagane hasło(0) | Wirus(0)
Statystyki seed/leech Ostatnio aktualizowane: 2021-10-07 19:43:28 [Aktualizuj]
Napisano: 27.11.2021 18:23
 
Nikt jeszcze nie skomentował tego torrenta... Może Ty to zrobisz?
Oświadczenie: Pliki prezentowane w katalogu nie znajdują się na serwerach wortalu. Użytkownicy zezwolili na ich udostępnienie. Administrator serwisu BitNova.info oraz właściciel serwera nie może ponieść konsekwencji za to co użytkownicy udostępniają i publikują. Pamiętaj! Nie możesz używać tego serwisu do rozpowszechniania lub ściągania materiałów do których nie masz odpowiednich praw lub licencji. Użytkownicy są odpowiedzialni za przestrzeganie tych zasad.

(Disclaimer: None files presented in the directory aren't hosted on servers vortal. Users allow their release. The administrator of site BitNova.info and owner of the server can not be held responsible for what its users post, or any other actions of its users. You may not use this site to distribute or download any material when you do not have the legal rights to do so. It is your own responsibility to adhere to these terms.)
» Zgłaszanie nadużyć / Abuse