Jedyny taki katalog polskich torrentów w sieci. Najlepsze torrenty w jednym miejscu.

Korzystanie ze strony jest darmowe. W przeciwieństwie do konkurencji nie kasujemy kont użytkowników bez ich wyraźnej prośby.

Torrent: Mission: Impossible 2 - Mission: Impossible II *2000* [DVDRip.AC3.XviD adrunrl] [Lektor PL]

Mission: Impossible 2 - Mission: Impossible II *2000* [DVDRip.AC3.XviD adrunrl] [Lektor PL] torrent
Dodał: adrunrl
19.11.2012 08:09
Kategoria: Sensacyjne

Rozmiar: 1.42 GB
Seed'ów: 0
Leecher'ów: 0
Pobrań: 0

Kondycja:
 


» Komentarze [0]
» Obserwuj
» Zgłoś plik
gatunek: Sensacyjny
produkcja: Niemcy, USA
premiera: 11 sierpnia 2000 (Polska) 24 maja 2000 (świat)
reżyseria: John Woo
scenariusz: Robert Towne

W "Mission Impossible 2" tryumfalnie powraca na ekrany Ethan Hunt - uwodzicielski agent, o rozbrajającym uśmiechu (Tom Cruise), który tym razem staje przed "niemożliwym do wykonania" zadaniem wykradzenia śmiercionośnego wirusa zmutowanej grypy "Chimery" z łap bezwzględnych terrorystów.
Już pierwsze sekwencje filmu zapowiadają niezłą zabawę w najlepszym hollywoodzkim stylu. Poza brawurową akcją przejęcia wartej miliony "Chimery", serwowana nam jest katastrofa lotnicza, a na deser prezentowany jest sam agent Cruise wspinający się przez długie sekundy (oczywiście bez żadnych zabezpieczeń) w celu odebrania zlecenia na kolejną "niemożliwą misję".
Intryga nabiera rozpędu, gdy agent Hunt dowiaduje się, że terrorystą, na którego poluje jest jego wieloletni dubler, równie elegancki, co i bezwzględny - agent Sean Ambrose (Dougray Scott). Będący kimś w rodzaju alter ego Hunta - sobowtórem o mrocznych skłonnościach, który w dodatku do szaleństwa zakochany jest w tej samej kobiecie...

Informacje o pliku:

========================================
Format : AVI
Format/Info : Audio Video Interleave
File size : 1.41 GiB
Duration : 1h 58mn
Overall bit rate : 1 697 Kbps
Writing application : VirtualDubMod 1.5.10.2 (build 2540/release)
Writing library : VirtualDubMod build 2540/release

Video
ID : 0
Format : xvid
Codec ID : xvid
Duration : 1h 58mn
Bit rate : 1 496 Kbps
Width : 672 pixels
Height : 272 pixels
Display aspect ratio : 2.471
Frame rate : 25.000 fps
Bits/(Pixel*Frame) : 0.327
Stream size : 1.24 GiB (88%)

Audio
ID : 1
Format : AC-3
Format/Info : Audio Coding 3
Mode extension : CM (complete main)
Format settings, Endianness : Big
Codec ID : 2000
Duration : 1h 58mn
Bit rate mode : Constant
Bit rate : 192 Kbps
Channel(s) : 2 channels
Channel positions : Front: L R
Sampling rate : 48.0 KHz
Bit depth : 16 bits
Compression mode : Lossy
Stream size : 163 MiB (11%)
Alignment : Split accross interleaves
Interleave, duration : 40 ms (1.00 video frame)
Interleave, preload duration : 1 ms
========================================

Screen z filmu:

User image

Plik sample znajduje się w torrencie.
Ściągnij go pierwszego i zobacz jakość obrazu i dźwięku.
Ocena użytkowników Help
Działa(0) | Fake(0) | Nie działa(0) | Wymagane hasło(0) | Wirus(0)
Statystyki seed/leech Ostatnio aktualizowane: 2022-11-25 06:21:18 [Aktualizuj]


Napisano: 06.02.2023 21:15
 
Nikt jeszcze nie skomentował tego torrenta... Może Ty to zrobisz?
Oświadczenie: Pliki prezentowane w katalogu nie znajdują się na serwerach wortalu. Użytkownicy zezwolili na ich udostępnienie. Administrator serwisu BitNova.info oraz właściciel serwera nie może ponieść konsekwencji za to co użytkownicy udostępniają i publikują. Pamiętaj! Nie możesz używać tego serwisu do rozpowszechniania lub ściągania materiałów do których nie masz odpowiednich praw lub licencji. Użytkownicy są odpowiedzialni za przestrzeganie tych zasad.

(Disclaimer: None files presented in the directory aren't hosted on servers vortal. Users allow their release. The administrator of site BitNova.info and owner of the server can not be held responsible for what its users post, or any other actions of its users. You may not use this site to distribute or download any material when you do not have the legal rights to do so. It is your own responsibility to adhere to these terms.)
» Zgłaszanie nadużyć / Abuse