Jedyny taki katalog polskich torrentów w sieci. Najlepsze torrenty w jednym miejscu.

Korzystanie ze strony jest darmowe. W przeciwieństwie do konkurencji nie kasujemy kont użytkowników bez ich wyraźnej prośby.


Torrent: Notatnik śmierci - Death Note *2006* [DVDRip.RMVB] [Lektor PL]

Notatnik śmierci - Death Note *2006* [DVDRip.RMVB] [Lektor PL] torrent
Dodał: victor123
07.11.2012 20:12
Kategoria: Horror

Rozmiar: 395.53 MB
Seed'ów: (?)
Leecher'ów: (?)
Pobrań: (?)

Kondycja:
 


» Komentarze [0]
» Obserwuj
» Zgłoś plik
Notatnik śmierci - Death Note *2006* [DVDRip.RMVB] [Lektor PL]

Reżyseria: Shusuke Kaneko
Scenariusz: Tetsuya Ôishi
Zdjęcia: Hiroshi Takase
Muzyka: Kenji Kawai
Kraj: Japonia, USA
Premiera: 17 czerwca 2006 (świat)
Gatunek: Horror, Kryminał
Czas trwania: 2 godz. 6 min.
Tytuł filmu: Notatnik śmierci / Desu nôto (2006)
Inne tytuły: Death Note

OPIS

Adaptacja popularnej w Japonii i Korei Południowej mangi. Nastolatek Light Yagami znajduje tajemniczy notatnik - narzędzie boga śmierci. Notatnik ten pozwala na zabicie każdej osoby, której nazwisko zostanie w nim zapisane. Chłopiec postanawia z jego pomocą uczynić świat lepszym. Gdy w niewyjaśnionych okolicznościach zaczynają ginąć przestępcy, sprawą zaczyna się interesować policyjny detektyw.

OBSADA

Tatsuya Fujiwara - Light Yagami
Ken'ichi Matsuyama - L
Takeshi Kaga - Souichirou Yagami
Sota Aoyama - Det. Matsuda
Shido Nakamura Shinigami - "Bóg Śmierci" Ryuuk (głos)
Yuu Kashii - Shiori Kashino
Erika Toda - Misa Amane
Shigeki Hosokawa - Ray Penber, agent FBI
Asaka Seto - Naomi Misora
Ikuji Nakamura - Det. Ukida

Dane techniczne:

Format : RealMedia
File size : 396 MiB
Duration : 2h 1mn
Overall bit rate : 447 Kbps

Video
ID : 1
Format : RealVideo 4
Codec ID : RV40
Codec ID/Info : Based on AVC (H.264), Real Player 9
Duration : 2h 1mn
Bit rate : 383 Kbps
Width : 704 pixels
Height : 396 pixels
Display aspect ratio : 16:9
Frame rate : 25.000 fps
Bits/(Pixel*Frame) : 0.055
Stream size : 332 MiB (84%)

Audio
ID : 0
Format : Cooker
Codec ID : cook
Codec ID/Info : Based on G.722.1, Real Player 6
Duration : 2h 1mn
Bit rate : 64.1 Kbps
Channel(s) : 2 channels
Sampling rate : 44.1 KHz
Bit depth : 16 bits
Stream size : 55.7 MiB (14%)
Ocena użytkowników Help
Działa(0) | Fake(0) | Nie działa(0) | Wymagane hasło(0) | Wirus(0)
Statystyki seed/leech Ostatnio aktualizowane: 2020-04-11 21:49:43 [Aktualizuj]
Napisano: 05.12.2021 11:52
 
Nikt jeszcze nie skomentował tego torrenta... Może Ty to zrobisz?
Oświadczenie: Pliki prezentowane w katalogu nie znajdują się na serwerach wortalu. Użytkownicy zezwolili na ich udostępnienie. Administrator serwisu BitNova.info oraz właściciel serwera nie może ponieść konsekwencji za to co użytkownicy udostępniają i publikują. Pamiętaj! Nie możesz używać tego serwisu do rozpowszechniania lub ściągania materiałów do których nie masz odpowiednich praw lub licencji. Użytkownicy są odpowiedzialni za przestrzeganie tych zasad.

(Disclaimer: None files presented in the directory aren't hosted on servers vortal. Users allow their release. The administrator of site BitNova.info and owner of the server can not be held responsible for what its users post, or any other actions of its users. You may not use this site to distribute or download any material when you do not have the legal rights to do so. It is your own responsibility to adhere to these terms.)
» Zgłaszanie nadużyć / Abuse