Jedyny taki katalog polskich torrentów w sieci. Najlepsze torrenty w jednym miejscu.

Korzystanie ze strony jest darmowe. W przeciwieństwie do konkurencji nie kasujemy kont użytkowników bez ich wyraźnej prośby.


Torrent: Artur ratuje Gwiazdkę 3D (OU) - Arthur Christmas *2011* [mini-HD.1080p.Over-Under.dual audio.AC3.BluRay.x264-LEON 345] [Dubbing PL]

Artur ratuje Gwiazdkę 3D (OU) - Arthur Christmas *2011* [mini-HD.1080p.Over-Under.dual audio.AC3.BluRay.x264-LEON 345] [Dubbing PL] torrent
Dodał: Anonimowy
07.11.2012 16:36
Kategoria: Animowane

Rozmiar: 3.85 GB
Seed'ów: (?)
Leecher'ów: (?)
Pobrań: (?)

Kondycja:
 


» Komentarze [0]
» Obserwuj
» Zgłoś plik
Film w wersji 3D Side-By-Side (SBS)
Do odtworzenia filmu wymagany odpowiedni sprzęt (TV 3D).

gatunek: Animacja, Familijny, Komedia
produkcja: USA, Wielka Brytania
premiera: 25 listopada 2011 (Polska), 11 listopada 2011 (świat)
reżyseria: Sarah Smith
scenariusz: Peter Baynham Sarah Smith

Kiedy dostawa prezentu do jednego z sześciuset milionów dzieci nie dochodzi do skutku, Mikołaj i jego uzdolniony syn Steve uznają to za "dopuszczalny margines błędu". Jednak Arthur Christmas, nieprzystosowany najmłodszy syn Mikołaja, nie może tego znieść. Rozpoczyna szaleńczą misję i wyrusza, aby dostarczyć ostatni prezent na dwie godziny przed świątecznym porankiem. Jego komiczna przygoda sprawia, że przyszłość Bożego Narodzenia zostaje ocalona, a dysfunkcjonalna rodzina Mikołajów zacieśnia rodzinne więzi.

Kopie 3D SBS (OU) mini-HD, to kopie specjalistyczne o dużej rozdzielczości (1920 x 1080 ), które mimo niewielkiego ciężaru (w MB) zachowują wysoką jakość.

Szczególnie polecam tym, którzy chcą zaoszczędzić czas i przestrzeń na dysku.

Taką kopię można także bez problemu nagrać na zwykłą płytę DVD lub przenieś na zewnętrzną pamięć.

Ważne jest również to, że tą wersję mogą obejrzeć osoby, których sprzęt ma ograniczenia w postaci obsługi tylko formatu FAT, jak wiadomo taki format obsłuży filmy, które mają maksymalnie 4GB, więc w tym przypadku ta wersja jest też dla nich.



General
Unique ID : 197967704680978659871116518418856577112 (0x94EF316B81B0CFE28A53FA5C62D88858)
Complete name : E:FilmyFilmy 3DSzablonWstawkaARTHURCHRISTMAS_3Dmini(Leon 345)ARTHURCHRISTMAS_3D(Leon 345).mkv
Format : Matroska
Format version : Version 2
File size : 3.85 GiB
Duration : 1h 37mn
Encoding type : 2 pass
Overall bit rate mode : Variable
Overall bit rate : 5 644 Kbps
Encoded date : UTC 2012-11-07 03:17:51
Writing application : mkvmerge v5.7.0 ('The Whirlwind') built on Jul 8 2012 20:08:51
Writing library : libebml v1.2.3 + libmatroska v1.3.0

Video
ID : 1
Format : AVC
Format/Info : Advanced Video Codec
Format profile : High@L4.0
Format settings, CABAC : Yes
Format settings, ReFrames : 3 frames
Codec ID : V_MPEG4/ISO/AVC
Duration : 1h 37mn
Bit rate mode : Variable
Bit rate : 4 750 Kbps
Maximum bit rate : 15.0 Mbps
Width : 1 920 pixels
Height : 1 080 pixels
Display aspect ratio : 16:9
Frame rate mode : Constant
Frame rate : 23.976 fps
Color space : YUV
Chroma subsampling : 4:2:0
Bit depth : 8 bits
Scan type : Progressive
Bits/(Pixel*Frame) : 0.096
Stream size : 3.16 GiB (82%)
Title : Rip by Leon 345 encoding 2 pass
Writing library : x264 core 125 r2208 d9d2288
Default : Yes
Forced : No

Audio #1
ID : 2
Format : AC-3
Format/Info : Audio Coding 3
Mode extension : CM (complete main)
Format settings, Endianness : Big
Codec ID : A_AC3
Duration : 1h 37mn
Bit rate mode : Constant
Bit rate : 448 Kbps
Channel(s) : 6 channels
Channel positions : Front: L C R, Side: L R, LFE
Sampling rate : 48.0 KHz
Bit depth : 16 bits
Compression mode : Lossy
Stream size : 313 MiB (8%)
Title : AC3 5.1 dubbing PL
Language : Polish
Default : Yes
Forced : Yes

Audio #2
ID : 3
Format : AC-3
Format/Info : Audio Coding 3
Mode extension : CM (complete main)
Format settings, Endianness : Big
Codec ID : A_AC3
Duration : 1h 37mn
Bit rate mode : Constant
Bit rate : 448 Kbps
Channel(s) : 6 channels
Channel positions : Front: L C R, Side: L R, LFE
Sampling rate : 48.0 KHz
Bit depth : 16 bits
Compression mode : Lossy
Stream size : 313 MiB (8%)
Title : AC3 5.1 Orginal
Language : English
Default : No
Forced : No

Source [thx!]:
V- HDChina
A- DVDSEED
Ocena użytkowników Help
Działa(0) | Fake(0) | Nie działa(0) | Wymagane hasło(0) | Wirus(0)
Statystyki seed/leech Ostatnio aktualizowane: 2017-12-19 12:51:15 [Aktualizuj]
Napisano: 15.05.2021 22:49
 
Nikt jeszcze nie skomentował tego torrenta... Może Ty to zrobisz?
Oświadczenie: Pliki prezentowane w katalogu nie znajdują się na serwerach wortalu. Użytkownicy zezwolili na ich udostępnienie. Administrator serwisu BitNova.info oraz właściciel serwera nie może ponieść konsekwencji za to co użytkownicy udostępniają i publikują. Pamiętaj! Nie możesz używać tego serwisu do rozpowszechniania lub ściągania materiałów do których nie masz odpowiednich praw lub licencji. Użytkownicy są odpowiedzialni za przestrzeganie tych zasad.

(Disclaimer: None files presented in the directory aren't hosted on servers vortal. Users allow their release. The administrator of site BitNova.info and owner of the server can not be held responsible for what its users post, or any other actions of its users. You may not use this site to distribute or download any material when you do not have the legal rights to do so. It is your own responsibility to adhere to these terms.)
» Zgłaszanie nadużyć / Abuse