Jedyny taki katalog polskich torrentów w sieci. Najlepsze torrenty w jednym miejscu.

Korzystanie ze strony jest darmowe. W przeciwieństwie do konkurencji nie kasujemy kont użytkowników bez ich wyraźnej prośby.


Torrent: Cień wątpliwości - Shadow of a Doubt *1943* [720p.BluRay.X264.DTS] [ENG] [Napisy PL] [AT]

Cień wątpliwości - Shadow of a Doubt *1943* [720p.BluRay.X264.DTS] [ENG] [Napisy PL] [AT] torrent
Dodał: djpax
30.10.2012 10:43
Kategoria: Dramat

Rozmiar: 4.37 GB
Seed'ów: 0
Leecher'ów: 0
Pobrań: 0

Kondycja:
 


» Komentarze [0]
» Obserwuj
» Zgłoś plik
gatunek: Dramat, Thriller, Film-Noir
produkcja: USA
premiera: 12 stycznia 1943 (świat)
reżyseria: Alfred Hitchcock
scenariusz: Sally BensonAlma RevilleThornton Wilder

Filmweb: 7,6/10


IMDB: 8,1/10
[url=http://]http://www.imdb.com/title/tt0036342/


Opis:

Rodzina Newtonów prowadzi spokojne życie w Santa Rosa w Północnej Karolinie.
Najstarsza córka Newtonów, "mała Charlie" postanawia urozmaicić sobie czas
i zaprasza wujka Charliego, po którym odziedziczyła imię.
Kiedy udaje się na pocztę, odkrywa, że wujek jest już w drodze.
Razem z wujkiem pojawia się para detektywów, którzy podejrzewają,
że Charlie jest poszukiwanym seryjnym zabójcą "wesołych wdówek",
odpowiedzialnym za śmierć kilku bogatych wdów ze Wschodniego Wybrzeża.

Obsada:

Teresa Wright ... Young Charlie
Joseph Cotten ... Uncle Charlie
Macdonald Carey ... Jack Graham
Henry Travers ... Joseph Newton
Patricia Collinge ... Emma Newton
Hume Cronyn ... Herbie Hawkins
Wallace Ford ... Fred Saunders
Edna May Wonacott ... Ann Newton
Charles Bates ... Roger Newton
Irving Bacon ... Station Master
Clarence Muse ... Pullman Porter
Janet Shaw ... Louise
Estelle Jewell ... Catherine

Screen's

User image
User image
User image

Info:

Source from Amiable, Big THX !

Format : Matroska
Format version : Version 2
File size : 4.37 GiB
Duration : 1h 47mn
Overall bit rate : 5 804 Kbps
Writing application : mkvmerge v4.1.1
Writing library : libebml v1.0.0 + libmatroska v1.0

Video:

ID : 1
Format : AVC
Format/Info : Advanced Video Codec
Format profile : High@L4.1
Format settings, CABAC : Yes
Format settings, ReFrames : 5 frames
Codec ID : V_MPEG4/ISO/AVC
Duration : 1h 47mn
Bit rate : 4 293 Kbps
Width : 960 pixels
Height : 720 pixels
Display aspect ratio : 4:3
Frame rate mode : Constant
Frame rate : 23.976 fps
Color space : YUV
Chroma subsampling : 4:2:0
Bit depth : 8 bits
Scan type : Progressive
Bits/(Pixel*Frame) : 0.259
Stream size : 3.15 GiB (72%)
Writing library : x264 core 128 r2216 198a7ea

Language : English
Default : Yes
Forced : No

Audio:

ID : 2
Format : DTS
Format/Info : Digital Theater Systems
Codec ID : A_DTS
Duration : 1h 47mn
Bit rate mode : Constant
Bit rate : 1 510 Kbps
Channel(s) : 2 channels
Channel positions : Front: L R
Sampling rate : 48.0 KHz
Bit depth : 24 bits
Compression mode : Lossy
Stream size : 1.14 GiB (26%)
Language : English
Default : Yes
Forced : No

Text:

ID : 3
Format : UTF-8
Codec ID : S_TEXT/UTF8
Codec ID/Info : UTF-8 Plain Text
Language : English, Polish
Default : No
Forced : No
Trailer
Ocena użytkowników Help
Działa(0) | Fake(0) | Nie działa(0) | Wymagane hasło(0) | Wirus(0)
Statystyki seed/leech Ostatnio aktualizowane: 2012-10-30 10:43:41 [Aktualizuj]
Tagi dramat thriller film_noir 1943 hitchcock
Napisano: 18.09.2021 07:17
 
Nikt jeszcze nie skomentował tego torrenta... Może Ty to zrobisz?
Oświadczenie: Pliki prezentowane w katalogu nie znajdują się na serwerach wortalu. Użytkownicy zezwolili na ich udostępnienie. Administrator serwisu BitNova.info oraz właściciel serwera nie może ponieść konsekwencji za to co użytkownicy udostępniają i publikują. Pamiętaj! Nie możesz używać tego serwisu do rozpowszechniania lub ściągania materiałów do których nie masz odpowiednich praw lub licencji. Użytkownicy są odpowiedzialni za przestrzeganie tych zasad.

(Disclaimer: None files presented in the directory aren't hosted on servers vortal. Users allow their release. The administrator of site BitNova.info and owner of the server can not be held responsible for what its users post, or any other actions of its users. You may not use this site to distribute or download any material when you do not have the legal rights to do so. It is your own responsibility to adhere to these terms.)
» Zgłaszanie nadużyć / Abuse