Jedyny taki katalog polskich torrentów w sieci. Najlepsze torrenty w jednym miejscu.

Korzystanie ze strony jest darmowe. W przeciwieństwie do konkurencji nie kasujemy kont użytkowników bez ich wyraźnej prośby.


Torrent: Żądło - The Sting *1973* [BDRip.AC3.XviD adrunrl] [Dual.Audio] [Eng] [Lektor PL]

Żądło - The Sting *1973* [BDRip.AC3.XviD adrunrl] [Dual.Audio] [Eng] [Lektor PL] torrent
Dodał: adrunrl
28.10.2012 12:59
Kategoria: Komedie

Rozmiar: 2.08 GB
Seed'ów: 0
Leecher'ów: 0
Pobrań: 0

Kondycja:
 


» Komentarze [0]
» Obserwuj
» Zgłoś plik
gatunek: Komedia kryminalna
produkcja: USA
premiera: 25 grudnia 1973 (świat)
reżyseria: George Roy Hill
scenariusz: David S. Ward

Lata trzydzieste w USA. Dwóch przyjaciół drobnych oszustów postanawia zemścić się na wpływowym gangsterze za śmierć swojego przyjaciela. Wymyślają więc przekręt wszech czasów.

Informacje o pliku:

========================================
Format : AVI
Format/Info : Audio Video Interleave
Format profile : OpenDML
File size : 2.06 GiB
Duration : 2h 9mn
Overall bit rate : 2 277 Kbps
Writing application : VirtualDubMod 1.5.10.2 (build 2540/release)
Writing library : VirtualDubMod build 2540/release

Video
ID : 0
Format : xvid
Codec ID : xvid
Duration : 2h 9mn
Bit rate : 1 497 Kbps
Width : 640 pixels
Height : 352 pixels
Display aspect ratio : 16:9
Frame rate : 23.976 fps
Bits/(Pixel*Frame) : 0.277
Stream size : 1.35 GiB (66%)

Audio #1
ID : 1
Format : AC-3
Format/Info : Audio Coding 3
Mode extension : CM (complete main)
Format settings, Endianness : Big
Codec ID : 2000
Duration : 2h 9mn
Bit rate mode : Constant
Bit rate : 448 Kbps
Channel(s) : 6 channels
Channel positions : Front: L C R, Side: L R, LFE
Sampling rate : 48.0 KHz
Bit depth : 16 bits
Compression mode : Lossy
Stream size : 415 MiB (20%)
Alignment : Split accross interleaves
Interleave, duration : 1001 ms (23.99 video frames)
Interleave, preload duration : 1 ms

Audio #2
ID : 2
Format : AC-3
Format/Info : Audio Coding 3
Mode extension : CM (complete main)
Format settings, Endianness : Big
Codec ID : 2000
Duration : 2h 9mn
Bit rate mode : Constant
Bit rate : 320 Kbps
Channel(s) : 6 channels
Channel positions : Front: L C R, Side: L R, LFE
Sampling rate : 48.0 KHz
Bit depth : 16 bits
Compression mode : Lossy
Stream size : 296 MiB (14%)
Alignment : Split accross interleaves
Interleave, duration : 42 ms (1.00 video frame)
Interleave, preload duration : 1 ms
========================================

Plik sample znajduje się w torrencie.
Ściągnij go pierwszego i zobacz jakość obrazu i dźwięku.

Screen z filmu:

http://i1088.photobucket.com/albums/i330/adrunrl2004/thesting.jpg
Ocena użytkowników Help
Działa(0) | Fake(0) | Nie działa(1) | Wymagane hasło(0) | Wirus(0)
Statystyki seed/leech Ostatnio aktualizowane: 2020-03-27 12:49:10 [Aktualizuj]
Napisano: 17.05.2021 01:46
 
Nikt jeszcze nie skomentował tego torrenta... Może Ty to zrobisz?
Oświadczenie: Pliki prezentowane w katalogu nie znajdują się na serwerach wortalu. Użytkownicy zezwolili na ich udostępnienie. Administrator serwisu BitNova.info oraz właściciel serwera nie może ponieść konsekwencji za to co użytkownicy udostępniają i publikują. Pamiętaj! Nie możesz używać tego serwisu do rozpowszechniania lub ściągania materiałów do których nie masz odpowiednich praw lub licencji. Użytkownicy są odpowiedzialni za przestrzeganie tych zasad.

(Disclaimer: None files presented in the directory aren't hosted on servers vortal. Users allow their release. The administrator of site BitNova.info and owner of the server can not be held responsible for what its users post, or any other actions of its users. You may not use this site to distribute or download any material when you do not have the legal rights to do so. It is your own responsibility to adhere to these terms.)
» Zgłaszanie nadużyć / Abuse