Jedyny taki katalog polskich torrentów w sieci. Najlepsze torrenty w jednym miejscu.

Korzystanie ze strony jest darmowe. W przeciwieństwie do konkurencji nie kasujemy kont użytkowników bez ich wyraźnej prośby.


Torrent: EURO 2012: Mecz Czechy - Polska (2012) [HDTV.720p.x264.AC3] [PL] [mb]

EURO 2012: Mecz Czechy - Polska (2012) [HDTV.720p.x264.AC3] [PL] [mb] torrent
Dodał: Anonimowy
13.08.2012 02:38
Kategoria: Pozostałe

Rozmiar: 3.05 GB
Seed'ów: (?)
Leecher'ów: (?)
Pobrań: (?)

Kondycja:
 


» Komentarze [0]
» Obserwuj
» Zgłoś plik
EURO 2012: Mecz Czechy - Polska (2012) [HDTV.720p.x264.AC3] [PL] [mb]


Data: 16-06-2012, Wrocław
Mecz Czechy - Polska
Komentują: Dariusz Szpakowski i Andrzej Juskowiak
Czas trwania: 110 minut

sample:
http://www63.zippyshare.com/v/65958032/file.html



General:
Complete name : EURO.2012.Czechy.vs.Polska.2012.HDTV.720p.x264.AC3.PL.mkv
Format : Matroska
Format version : Version 2
File size : 3.05 GiB
Duration : 1h 49mn
Overall bit rate : 3 974 Kbps
Movie name : EURO.2012.Czechy.vs.Polska.2012.HDTV.720p.x264.AC3.PL-mb
Encoded date : UTC 2012-06-19 14:01:19
Writing application : mkvmerge v4.8.0 ('I Got The...')
Writing library : libebml v1.2.0 + libmatroska v1.1.0

Video
ID : 1
Format : AVC
Format/Info : Advanced Video Codec
Format profile : Main@L4.1
Format settings, CABAC : Yes
Format settings, ReFrames : 4 frames
Codec ID : V_MPEG4/ISO/AVC
Duration : 1h 49mn
Bit rate : 3 447 Kbps
Nominal bit rate : 3 832 Kbps
Width : 1 280 pixels
Height : 720 pixels
Display aspect ratio : 16:9
Frame rate : 25.000 fps
Color space : YUV
Chroma subsampling : 4:2:0
Bit depth : 8 bits
Scan type : Progressive
Bits/(Pixel*Frame) : 0.150
Stream size : 2.64 GiB (87%)
Writing library : x264 core 116 r2074 2641b9e
Language : Polish
Default : Yes
Forced : No

Audio
ID : 2
Format : AC-3
Format/Info : Audio Coding 3
Mode extension : CM (complete main)
Format settings, Endianness : Big
Codec ID : A_AC3
Duration : 1h 49mn
Bit rate mode : Constant
Bit rate : 448 Kbps
Channel(s) : 6 channels
Channel positions : Front: L C R, Side: L R, LFE
Sampling rate : 48.0 KHz
Bit depth : 16 bits
Compression mode : Lossy
Stream size : 352 MiB (11%)
Title : Polish 5.1 AC3
Language : Polish
Default : Yes
Forced : No
Ocena użytkowników Help
Działa(0) | Fake(0) | Nie działa(0) | Wymagane hasło(0) | Wirus(0)
Statystyki seed/leech Ostatnio aktualizowane: 2018-07-31 17:23:20 [Aktualizuj]
Napisano: 17.05.2021 21:47
 
Nikt jeszcze nie skomentował tego torrenta... Może Ty to zrobisz?
Oświadczenie: Pliki prezentowane w katalogu nie znajdują się na serwerach wortalu. Użytkownicy zezwolili na ich udostępnienie. Administrator serwisu BitNova.info oraz właściciel serwera nie może ponieść konsekwencji za to co użytkownicy udostępniają i publikują. Pamiętaj! Nie możesz używać tego serwisu do rozpowszechniania lub ściągania materiałów do których nie masz odpowiednich praw lub licencji. Użytkownicy są odpowiedzialni za przestrzeganie tych zasad.

(Disclaimer: None files presented in the directory aren't hosted on servers vortal. Users allow their release. The administrator of site BitNova.info and owner of the server can not be held responsible for what its users post, or any other actions of its users. You may not use this site to distribute or download any material when you do not have the legal rights to do so. It is your own responsibility to adhere to these terms.)
» Zgłaszanie nadużyć / Abuse