Jedyny taki katalog polskich torrentów w sieci. Najlepsze torrenty w jednym miejscu.

Korzystanie ze strony jest darmowe. W przeciwieństwie do konkurencji nie kasujemy kont użytkowników bez ich wyraźnej prośby.


Torrent: John Carter 3D OU *2012* [BDRip.1080p.Half.Over-Under.Dual audio.AC3.x264-LEON 345] [Lektor i Napisy PL]

John Carter 3D OU *2012* [BDRip.1080p.Half.Over-Under.Dual audio.AC3.x264-LEON 345] [Lektor i Napisy PL] torrent
Dodał: Anonimowy
09.08.2012 02:57
Kategoria: Inne

Rozmiar: 10.20 GB
Seed'ów: (?)
Leecher'ów: (?)
Pobrań: (?)

Kondycja:
 


» Komentarze [0]
» Obserwuj
» Zgłoś plik
Film w wersji 3D Over-Under.
Do odtworzenia filmu WYMAGANY odpowiedni sprzęt (TV 3D).

=
WSTAWKA NA PROŚBE kimari11
=
ORAZ "SZLACHCICA" dalton30

gatunek: Przygodowy, Sci-Fi
premiera: 9 marca 2012 (Polska) 8 marca 2012 (świat)
produkcja: USA

John Carter (Taylor Kitsch) to młody weteran wojny secesyjnej, ciężko doświadczony walką na froncie. W niejasnych okolicznościach trafia na obcą planetę. Tam zostaje uwikłany w wielki konflikt między tubylcami, Tarsem Tarkasem (Willem Dafoe) i księżniczką Dejah Thoris (Lynn Collins), która desperacko potrzebuje jego pomocy. W świecie na skraju zagłady, Carter odzyskuje wiarę w siebie, i rozpoczyna walkę, od której zależy los Barsoom i jej mieszkańców.

General

Format : Matroska
File size : 10.2 GiB
Duration : 2h 12mn
Overall bit rate : 11.1 Mbps
Encoded date : UTC 2012-06-23 19:32:35
Writing application : mkvmerge v5.2.1 ('A Far Off Place') built on Jan 2 2012 23:21:10
Writing library : libebml v1.2.3 + libmatroska v1.3.0

Video
ID : 1
Format : AVC
Format/Info : Advanced Video Codec
Format profile : High@L4.1
Format settings, CABAC : Yes
Format settings, ReFrames : 4 frames
Muxing mode : Container profile=Unknown@4.1
Codec ID : V_MPEG4/ISO/AVC
Duration : 2h 11mn
Bit rate : 9 750 Kbps
Width : 1 920 pixels
Height : 1 080 pixels
Display aspect ratio : 16:9
Frame rate : 23.976 fps
Resolution : 8 bits
Colorimetry : 4:2:0
Scan type : Progressive
Bits/(Pixel*Frame) : 0.196
Stream size : 8.98 GiB (88%)
Writing library : x264 core 119 r2106 07efeb4
Encoding settings : cabac=1 / ref=4 / deblock=1:-3:-3 / analyse=0x3:0x113 / me=umh / subme=9 / psy=1 / psy_rd=1.00:0.15 / mixed_ref=1 / me_range=16 / chroma_me=1 / trellis=2 / 8x8dct=1 / cqm=0 / deadzone=21,11 / fast_pskip=1 / chroma_qp_offset=-3 / threads=3 / sliced_threads=0 / nr=0 / decimate=1 / interlaced=0 / bluray_compat=0 / constrained_intra=0 / bframes=6 / b_pyramid=2 / b_adapt=2 / b_bias=0 / direct=3 / weightb=1 / open_gop=0 / weightp=2 / keyint=250 / keyint_min=23 / scenecut=40 / intra_refresh=0 / rc_lookahead=60 / rc=crf / mbtree=1 / crf=18.0 / qcomp=0.70 / qpmin=0 / qpmax=69 / qpstep=4 / vbv_maxrate=40000 / vbv_bufsize=40000 / crf_max=0.0 / nal_hrd=none / frame-packing=4 / ip_ratio=1.40 / aq=1:0.7

Audio #1
ID : 2
Format : AC-3
Format/Info : Audio Coding 3
Codec ID : A_AC3
Duration : 2h 12mn
Bit rate mode : Constant
Bit rate : 448 Kbps
Channel(s) : 6 channels
Channel positions : Front: L C R, Side: L R, LFE
Sampling rate : 48.0 KHz
Stream size : 423 MiB (4%)
Language : Polish

Audio #2
ID : 3
Format : AC-3
Format/Info : Audio Coding 3
Codec ID : A_AC3
Duration : 2h 12mn
Bit rate mode : Constant
Bit rate : 640 Kbps
Channel(s) : 6 channels
Channel positions : Front: L C R, Side: L R, LFE
Sampling rate : 48.0 KHz
Stream size : 604 MiB (6%)
Language : English

Text
ID : 4
Format : UTF-8
Codec ID : S_TEXT/UTF8
Codec ID/Info : UTF-8 Plain Text
Language : Polish

zapraszam wszystkich chętnych i pamiętajcie udostępniać innym bo mało tego było a tak piloty już się nie kurzą. Dostajecie za darmo więc dajcie innym !!!
Ocena użytkowników Help
Działa(0) | Fake(0) | Nie działa(0) | Wymagane hasło(0) | Wirus(0)
Statystyki seed/leech Ostatnio aktualizowane: 2017-05-12 10:30:29 [Aktualizuj]
Napisano: 28.11.2021 06:34
 
Nikt jeszcze nie skomentował tego torrenta... Może Ty to zrobisz?
Oświadczenie: Pliki prezentowane w katalogu nie znajdują się na serwerach wortalu. Użytkownicy zezwolili na ich udostępnienie. Administrator serwisu BitNova.info oraz właściciel serwera nie może ponieść konsekwencji za to co użytkownicy udostępniają i publikują. Pamiętaj! Nie możesz używać tego serwisu do rozpowszechniania lub ściągania materiałów do których nie masz odpowiednich praw lub licencji. Użytkownicy są odpowiedzialni za przestrzeganie tych zasad.

(Disclaimer: None files presented in the directory aren't hosted on servers vortal. Users allow their release. The administrator of site BitNova.info and owner of the server can not be held responsible for what its users post, or any other actions of its users. You may not use this site to distribute or download any material when you do not have the legal rights to do so. It is your own responsibility to adhere to these terms.)
» Zgłaszanie nadużyć / Abuse