Jedyny taki katalog polskich torrentów w sieci. Najlepsze torrenty w jednym miejscu.

Korzystanie ze strony jest darmowe. W przeciwieństwie do konkurencji nie kasujemy kont użytkowników bez ich wyraźnej prośby.


Torrent: Sector 7 - 3D OU *2011*[BDRip.1080p.Half.Over-Under.AC3.x264-LEON 345][KOR](Napisy PL)

Sector 7 - 3D OU *2011*[BDRip.1080p.Half.Over-Under.AC3.x264-LEON 345][KOR](Napisy PL) torrent
Dodał: Anonimowy
08.08.2012 13:10
Kategoria: Inne

Rozmiar: 5.99 GB
Seed'ów: 12
Leecher'ów: 19
Pobrań: 89

Kondycja:
 


» Komentarze [0]
» Obserwuj
» Zgłoś plik
=======================Film w wersji 3D Over-Under.
Do odtworzenia filmu WYMAGANY odpowiedni sprzęt (TV 3D).
=========================================================

czas trwania: 1 godz. 52 min.
gatunek: Przygodowy, Thriller, Sci-Fi
premiera: 4 sierpnia 2011 (Świat)
produkcja: USA, Korea Południowa
reżyseria: Ji Hoon Kim
scenariusz: Yoon Je-kyoon

Na platformie wiertniczej, położonej na południe od wyspy Jeju, pracuje Hae-Joon (Ji-won Ha) jako menedżer ds. sprzętu. W skład załogi wchodzi również Jung-Man (Sung-kee Ahn), dawny kolega jej zmarłego ojca Hae-Joon, a teraz nowy kapitan platformy badawczej "Eclipse". Po wykonaniu jednego z odwiertów, członkowie załogi zaczynają ginąć w tajemniczych okolicznościach. Pozostali szybko orientują się, że tajemniczy podwodny potwór dostał się na pokład platformy wiertniczej i zaczyna się nimi żywić. Hae-Joon i jej współpracownicy muszą teraz walczyć o swoje życie, podczas gdy kapitan Jung-Man posiada klucz do zagadki pojawienia się monstrum...


General

Format : Matroska
File size : 5.99 GiB
Duration : 1h 41mn
Overall bit rate : 8 474 Kbps
Encoded date : UTC 2012-06-26 12:13:45
Writing application : mkvmerge v5.2.1 ('A Far Off Place') built on Jan 2 2012 23:21:10
Writing library : libebml v1.2.3 + libmatroska v1.3.0

Video
ID : 1
Format : AVC
Format/Info : Advanced Video Codec
Format profile : Baseline@L4.0
Format settings, CABAC : No
Format settings, ReFrames : 1 frame
Muxing mode : Container profile=Unknown@4.0
Codec ID : V_MPEG4/ISO/AVC
Duration : 1h 41mn
Bit rate : 7 857 Kbps
Width : 1 920 pixels
Height : 1 080 pixels
Display aspect ratio : 16:9
Frame rate mode : Variable
Frame rate : 23.976 fps
Resolution : 8 bits
Colorimetry : 4:2:0
Scan type : Progressive
Bits/(Pixel*Frame) : 0.158
Stream size : 5.54 GiB (93%)

Audio
ID : 2
Format : AC-3
Format/Info : Audio Coding 3
Codec ID : A_AC3
Duration : 1h 41mn
Bit rate mode : Constant
Bit rate : 448 Kbps
Channel(s) : 6 channels
Channel positions : Front: L C R, Side: L R, LFE
Sampling rate : 48.0 KHz
Stream size : 324 MiB (5%)
Language : Korean

Text
ID : 3
Format : UTF-8
Codec ID : S_TEXT/UTF8
Codec ID/Info : UTF-8 Plain Text
Language : Polish
Synchro do swojego ripa Leon 345
Tłumaczenie GHunter aka BiDA Thanks !f0a103f6054e1544ebafdc635fefb3fb52f385ea7de3ef79=======================
Ocena użytkowników Help
Działa(0) | Fake(0) | Nie działa(0) | Wymagane hasło(0) | Wirus(0)
Statystyki seed/leech Ostatnio aktualizowane: 2012-08-08 13:10:51 [Aktualizuj]
Napisano: 17.10.2021 14:22
 
Nikt jeszcze nie skomentował tego torrenta... Może Ty to zrobisz?
Oświadczenie: Pliki prezentowane w katalogu nie znajdują się na serwerach wortalu. Użytkownicy zezwolili na ich udostępnienie. Administrator serwisu BitNova.info oraz właściciel serwera nie może ponieść konsekwencji za to co użytkownicy udostępniają i publikują. Pamiętaj! Nie możesz używać tego serwisu do rozpowszechniania lub ściągania materiałów do których nie masz odpowiednich praw lub licencji. Użytkownicy są odpowiedzialni za przestrzeganie tych zasad.

(Disclaimer: None files presented in the directory aren't hosted on servers vortal. Users allow their release. The administrator of site BitNova.info and owner of the server can not be held responsible for what its users post, or any other actions of its users. You may not use this site to distribute or download any material when you do not have the legal rights to do so. It is your own responsibility to adhere to these terms.)
» Zgłaszanie nadużyć / Abuse