Jedyny taki katalog polskich torrentów w sieci. Najlepsze torrenty w jednym miejscu.

Korzystanie ze strony jest darmowe. W przeciwieństwie do konkurencji nie kasujemy kont użytkowników bez ich wyraźnej prośby.


Torrent: Rodzinka Robinsonów 3D (OU) - Meet the Robinsons *2007* [mini-HD.1080p.Over-Under.AC3.x264-LEON 345] [Dubbing PL]

Rodzinka Robinsonów 3D (OU) - Meet the Robinsons *2007* [mini-HD.1080p.Over-Under.AC3.x264-LEON 345] [Dubbing PL] torrent
Dodał: Anonimowy
07.08.2012 08:24
Kategoria: Inne

Rozmiar: 3.76 GB
Seed'ów: (?)
Leecher'ów: (?)
Pobrań: (?)

Kondycja:
 


» Komentarze [0]
» Obserwuj
» Zgłoś plik
Film w wersji 3D Over-Under.
Do odtworzenia filmu WYMAGANY odpowiedni sprzęt (TV 3D).
==================================

Kopia mini-HD 1080p = tylko 3,76 GB

gatunek: Animacja, Familijny, Komedia, Sci-Fi
premiera: 1 czerwca 2007 (Polska), 23 marca 2007 (świat)
produkcja: USA

Historia chłopca - geniusza, który pewnego dnia konstruuje maszynę pozwalającą odzyskać utracone wspomnienia. Okazuje się, że maszyna uruchamia przejście w czasie. Wilbur przenosi się do swojej przyszłości ? do świata, którego istnienie zależy tylko od niego..

Kopie 3D SBS(OU) mini-HD, to kopie specjalistyczne o dużej rozdzielczości (1920 x 1080 ), które mimo niewielkiego ciężaru (w MB) zachowują wysoką jakość.

Szczególnie polecam tym, którzy chcą zaoszczędzić czas i przestrzeń na dysku.

Taką kopię można także bez problemu nagrać na zwykłą płytę DVD lub przenieś na zewnętrzną pamięć.

Ważne jest również to, że tą wersję mogą obejrzeć osoby, których sprzęt ma ograniczenia w postaci obsługi tylko formatu FAT, jak wiadomo taki format obsłuży filmy, które mają maksymalnie 4GB, więc w tym przypadku ta wersja jest też dla nich.

TĄ KOPIE WYKONAŁ LEON 345 SPECJALNIE DLA WAS

General

Format : Matroska
File size : 3.76 GiB
Duration : 1h 31mn
Overall bit rate : 5 901 Kbps
Encoded date : UTC 2012-06-30 21:23:55
Writing application : mkvmerge v5.2.1 ('A Far Off Place') built on Jan 2 2012 23:21:10
Writing library : libebml v1.2.3 + libmatroska v1.3.0

Video
ID : 1
Format : AVC
Format/Info : Advanced Video Codec
Format profile : Baseline@L4.0
Format settings, CABAC : No
Format settings, ReFrames : 1 frame
Muxing mode : Container profile=Unknown@4.0
Codec ID : V_MPEG4/ISO/AVC
Duration : 1h 31mn
Bit rate : 5 336 Kbps
Width : 1 920 pixels
Height : 1 080 pixels
Display aspect ratio : 16:9
Frame rate mode : Variable
Frame rate : 25.000 fps
Resolution : 8 bits
Colorimetry : 4:2:0
Scan type : Progressive
Bits/(Pixel*Frame) : 0.103
Stream size : 3.40 GiB (90%)

Audio
ID : 2
Format : AC-3
Format/Info : Audio Coding 3
Codec ID : A_AC3
Duration : 1h 31mn
Bit rate mode : Constant
Bit rate : 448 Kbps
Channel(s) : 6 channels
Channel positions : Front: L C R, Side: L R, LFE
Sampling rate : 48.0 KHz
Video delay : 20ms
Stream size : 292 MiB (8%)
Title : Synchro by Leon 345
Language : Polish dubbing
Ocena użytkowników Help
Działa(0) | Fake(0) | Nie działa(0) | Wymagane hasło(0) | Wirus(0)
Statystyki seed/leech Ostatnio aktualizowane: 2021-01-15 11:42:48 [Aktualizuj]
Napisano: 08.08.2022 18:16
 
Nikt jeszcze nie skomentował tego torrenta... Może Ty to zrobisz?
Oświadczenie: Pliki prezentowane w katalogu nie znajdują się na serwerach wortalu. Użytkownicy zezwolili na ich udostępnienie. Administrator serwisu BitNova.info oraz właściciel serwera nie może ponieść konsekwencji za to co użytkownicy udostępniają i publikują. Pamiętaj! Nie możesz używać tego serwisu do rozpowszechniania lub ściągania materiałów do których nie masz odpowiednich praw lub licencji. Użytkownicy są odpowiedzialni za przestrzeganie tych zasad.

(Disclaimer: None files presented in the directory aren't hosted on servers vortal. Users allow their release. The administrator of site BitNova.info and owner of the server can not be held responsible for what its users post, or any other actions of its users. You may not use this site to distribute or download any material when you do not have the legal rights to do so. It is your own responsibility to adhere to these terms.)
» Zgłaszanie nadużyć / Abuse