Jedyny taki katalog polskich torrentów w sieci. Najlepsze torrenty w jednym miejscu.

Korzystanie ze strony jest darmowe. W przeciwieństwie do konkurencji nie kasujemy kont użytkowników bez ich wyraźnej prośby.


Torrent: Mystic River *2003* (720p MP4 AAC x264 BRRip-CC) [Język, Napisy - English]

Mystic River *2003* (720p MP4 AAC x264 BRRip-CC) [Język, Napisy - English] torrent
Dodał: Anonimowy
05.08.2012 11:09
Kategoria: Inne

Rozmiar: 2.42 GB
Seed'ów: 0
Leecher'ów: 0
Pobrań: 0

Kondycja:
 


» Komentarze [0]
» Obserwuj
» Zgłoś plik
Tytuł PL: ..:: Rzeka Tajemnic ::..
Tytuł : ..:: Mystic River ::..

czas trwania: 2 godz. 17 min.
gatunek: Dramat, Kryminał, Thriller
premiera: 14 listopada 2003 (Polska) 23 maja 2003 (świat)
produkcja: Australia, USA
reżyseria: Clint Eastwood
scenariusz: Brian Helgeland
http://www.filmweb.pl/Rzeka.Tajemnic

Cast:
Sean Penn, Tim Robbins, Kevin Bacon, Laurence Fishburne, Marcia Gay Harden, Laura Linney, Kevin Chapman, Tom Guiry, Emmy Rossum, Spencer Treat Clark.

Opis:
Jimmy Markum (Sean Penn), Dave Boyle (Tim Robbins) i Sean Devine (Kevin Bacon) pochodzą z robotniczych rodzin. Znają i przyjaźnią się od dziecka, kiedy to razem wychowywali się w niespokojnej bostońskiej dzielnicy. W ich życiu nie wydarzyło się nic nadzwyczajnego, aż do momentu, kiedy jeden z nich wsiadł do niewłaściwego samochodu. Porwanie Davida Boyle'a zmieniło wszystko. Ich przyjaźń została zachwiana, chłopcy oddalili się od siebie. 25 lat później ich drogi ponownie się łączą za sprawą innego, tragicznego wydarzenia - morderstwa dziewiętnastoletniej córki Jimmy'ego. Seanowi, który został policyjnym detektywem, zostaje powierzona sprawa brutalnego morderstwa. Wraz ze swoim partnerem (Laurence Fishburne) rozpoczyna dochodzenie. Po krótkim dochodzeniu ich głównym podejrzanym staje się Dave Boyle.

General
Complete name : Mystic River-720p MP4 AAC x264 BRRip 2003-CC.mp4
Format : MPEG-4
Format profile : Base Media
Codec ID : isom
File size : 2.39 GiB
Duration : 2h 17mn
Overall bit rate : 2 483 Kbps
Encoded date : UTC 2012-07-04 14:39:18
Tagged date : UTC 2012-07-04 14:39:18
Writing application : Yamb 2.1.0.0

Video
ID : 1
Format : AVC
Format/Info : Advanced Video Codec
Format profile : High@L3.1
Format settings, CABAC : Yes
Format settings, ReFrames : 5 frames
Codec ID : avc1
Codec ID/Info : Advanced Video Coding
Duration : 2h 17mn
Bit rate mode : Variable
Bit rate : 2 105 Kbps
Maximum bit rate : 11.5 Mbps
Width : 1 280 pixels
Height : 528 pixels
Display aspect ratio : 2.35:1
Frame rate mode : Variable
Frame rate : 23.976 fps
Minimum frame rate : 15.873 fps
Maximum frame rate : 24.390 fps
Resolution : 24 bits
Colorimetry : 4:2:0
Scan type : Progressive
Bits/(Pixel*Frame) : 0.130
Stream size : 2.02 GiB (84%)
Writing library : x264 core 112
Encoding settings : cabac=1 / ref=5 / deblock=1:0:0 / analyse=0x3:0x113 / me=hex / subme=7 / psy=1 / psy_rd=1.00:0.00 / mixed_ref=1 / me_range=16 / chroma_me=1 / trellis=1 / 8x8dct=1 / cqm=0 / deadzone=21,11 / fast_pskip=1 / chroma_qp_offset=-2 / threads=3 / sliced_threads=0 / nr=0 / decimate=1 / interlaced=0 / constrained_intra=0 / bframes=5 / b_pyramid=2 / b_adapt=2 / b_bias=0 / direct=1 / weightb=1 / open_gop=0 / weightp=2 / keyint=240 / keyint_min=23 / scenecut=40 / intra_refresh=0 / rc_lookahead=50 / rc=abr / mbtree=1 / bitrate=2105 / ratetol=1.0 / qcomp=0.60 / qpmin=3 / qpmax=51 / qpstep=4 / ip_ratio=1.40 / aq=1:1.00
Encoded date : UTC 2012-07-05 05:07:26
Tagged date : UTC 2012-07-04 14:42:56
colour_primaries : BT.709-5, BT.1361, IEC 61966-2-4, SMPTE RP177
transfer_characteristics : BT.709-5, BT.1361
matrix_coefficients : BT.709-5, BT.1361, IEC 61966-2-4 709, SMPTE RP177

Audio
ID : 2
Format : AAC
Format/Info : Advanced Audio Codec
Format version : Version 4
Format profile : LC
Format settings, SBR : No
Codec ID : 40
Duration : 2h 17mn
Bit rate mode : Variable
Bit rate : 384 Kbps
Maximum bit rate : 771 Kbps
Channel(s) : 6 channels
Channel positions : Front: L C R, Rear: L R, LFE
Sampling rate : 48.0 KHz
Resolution : 16 bits
Stream size : 377 MiB (15%)
Language : English
Encoded date : UTC 2012-07-04 14:42:14
Tagged date : UTC 2012-07-04 14:42:56

Enjoy...
Ocena użytkowników Help
Działa(0) | Fake(0) | Nie działa(0) | Wymagane hasło(0) | Wirus(0)
Statystyki seed/leech Ostatnio aktualizowane: 2017-10-19 21:50:23 [Aktualizuj]
Napisano: 24.01.2022 01:35
 
Nikt jeszcze nie skomentował tego torrenta... Może Ty to zrobisz?
Oświadczenie: Pliki prezentowane w katalogu nie znajdują się na serwerach wortalu. Użytkownicy zezwolili na ich udostępnienie. Administrator serwisu BitNova.info oraz właściciel serwera nie może ponieść konsekwencji za to co użytkownicy udostępniają i publikują. Pamiętaj! Nie możesz używać tego serwisu do rozpowszechniania lub ściągania materiałów do których nie masz odpowiednich praw lub licencji. Użytkownicy są odpowiedzialni za przestrzeganie tych zasad.

(Disclaimer: None files presented in the directory aren't hosted on servers vortal. Users allow their release. The administrator of site BitNova.info and owner of the server can not be held responsible for what its users post, or any other actions of its users. You may not use this site to distribute or download any material when you do not have the legal rights to do so. It is your own responsibility to adhere to these terms.)
» Zgłaszanie nadużyć / Abuse