Jedyny taki katalog polskich torrentów w sieci. Najlepsze torrenty w jednym miejscu.

Korzystanie ze strony jest darmowe. W przeciwieństwie do konkurencji nie kasujemy kont użytkowników bez ich wyraźnej prośby.

Torrent: Zielona Latarnia 3D (OU) - Green Lantern *2011* [1080p.Half.Over-Under.Dual audio.AC3.BluRay.x264-LEON 345] [Lektor i Napisy PL]

Zielona Latarnia 3D (OU) - Green Lantern *2011* [1080p.Half.Over-Under.Dual audio.AC3.BluRay.x264-LEON 345] [Lektor i Napisy PL] torrent
Dodał: Anonimowy
13.07.2012 17:39
Kategoria: Akcja

Rozmiar: 6.56 GB
Seed'ów: (?)
Leecher'ów: (?)
Pobrań: (?)

Kondycja:
 


» Komentarze [0]
» Obserwuj
» Zgłoś plik
Film w wersji 3D Over-Under.
Do odtworzenia filmu WYMAGANY odpowiedni sprzęt (TV 3D).

gatunek: Akcja, Sci-Fi
premiera: 29 lipca 2011 (Polska) 14 czerwca 2011 (Świat)

We wszechświecie równie olbrzymim, co tajemniczym od wieków istnieje pewna niezauważalna, lecz potężna siła – obrońcy pokoju i sprawiedliwości, zwani Green Lantern Corps. Jest to grupa wojowników, którzy przysięgli strzec międzygalaktycznego porządku. Każdy z nich nosi pierścień, obdarzający go nadzwyczajnymi mocami. Kiedy jednak pojawia się nowy wróg, Parallax, który grozi, że zniszczy układ sił we wszechświecie, losy Green Lantern Corps oraz Ziemi spoczywają w rękach najmłodszego rekruta, Hala Jordana, pierwszego człowieka w szeregach organizacji. Jeśli wspierany przez innego pilota – swoją ukochaną z dzieciństwa, Carol Ferris (Blake Lively) – szybko nauczy się panować nad nowymi mocami i odnajdzie w sobie odwagę, by pokonać swe lęki, to być może stanie się nie tylko osobą, bez której pokonanie Parallaxa nie byłoby możliwe, … ale także największym wojownikiem Green Lantern.

General

Format : Matroska
File size : 6.56 GiB
Duration : 1h 54mn
Overall bit rate : 8 238 Kbps
Encoded date : UTC 2012-07-04 10:40:25
Writing application : mkvmerge v5.2.1 ('A Far Off Place') built on Jan 2 2012 23:21:10
Writing library : libebml v1.2.3 + libmatroska v1.3.0

Video
ID : 1
Format : AVC
Format/Info : Advanced Video Codec
Format profile : Baseline@L4.0
Format settings, CABAC : No
Format settings, ReFrames : 1 frame
Muxing mode : Container profile=Unknown@4.0
Codec ID : V_MPEG4/ISO/AVC
Duration : 1h 53mn
Bit rate : 6 986 Kbps
Width : 1 920 pixels
Height : 1 080 pixels
Display aspect ratio : 16:9
Frame rate mode : Variable
Frame rate : 23.976 fps
Resolution : 8 bits
Colorimetry : 4:2:0
Scan type : Progressive
Bits/(Pixel*Frame) : 0.141
Stream size : 5.56 GiB (85%)

Audio #1
ID : 2
Format : AC-3
Format/Info : Audio Coding 3
Codec ID : A_AC3
Duration : 1h 54mn
Bit rate mode : Constant
Bit rate : 448 Kbps
Channel(s) : 6 channels
Channel positions : Front: L C R, Side: L R, LFE
Sampling rate : 48.0 KHz
Stream size : 365 MiB (5%)
Language : Polish

Audio #2
ID : 3
Format : AC-3
Format/Info : Audio Coding 3
Codec ID : A_AC3
Duration : 1h 54mn
Bit rate mode : Constant
Bit rate : 640 Kbps
Channel(s) : 6 channels
Channel positions : Front: L C R, Side: L R, LFE
Sampling rate : 48.0 KHz
Stream size : 522 MiB (8%)
Language : English
Ocena użytkowników Help
Działa(0) | Fake(0) | Nie działa(0) | Wymagane hasło(0) | Wirus(0)
Statystyki seed/leech Ostatnio aktualizowane: 2017-09-03 09:20:42 [Aktualizuj]


Napisano: 01.02.2023 15:58
 
Nikt jeszcze nie skomentował tego torrenta... Może Ty to zrobisz?
Oświadczenie: Pliki prezentowane w katalogu nie znajdują się na serwerach wortalu. Użytkownicy zezwolili na ich udostępnienie. Administrator serwisu BitNova.info oraz właściciel serwera nie może ponieść konsekwencji za to co użytkownicy udostępniają i publikują. Pamiętaj! Nie możesz używać tego serwisu do rozpowszechniania lub ściągania materiałów do których nie masz odpowiednich praw lub licencji. Użytkownicy są odpowiedzialni za przestrzeganie tych zasad.

(Disclaimer: None files presented in the directory aren't hosted on servers vortal. Users allow their release. The administrator of site BitNova.info and owner of the server can not be held responsible for what its users post, or any other actions of its users. You may not use this site to distribute or download any material when you do not have the legal rights to do so. It is your own responsibility to adhere to these terms.)
» Zgłaszanie nadużyć / Abuse