Jedyny taki katalog polskich torrentów w sieci. Najlepsze torrenty w jednym miejscu.

Korzystanie ze strony jest darmowe. W przeciwieństwie do konkurencji nie kasujemy kont użytkowników bez ich wyraźnej prośby.


Torrent: Starcie Tytanów 3D (OU) - Clash of the Titans (2010) [mini-HD.1080p.Over-Under.AC3.x264-LEON 345] [Lektor PL]

Starcie Tytanów 3D (OU) - Clash of the Titans (2010) [mini-HD.1080p.Over-Under.AC3.x264-LEON 345] [Lektor PL] torrent
Dodał: Anonimowy
28.04.2012 10:47
Kategoria: Fantasy

Rozmiar: 3.67 GB
Seed'ów: (?)
Leecher'ów: (?)
Pobrań: (?)

Kondycja:
 


» Komentarze [0]
» Obserwuj
» Zgłoś plik
Film w wersji 3D Over-Under.
Do odtworzenia filmu WYMAGANY odpowiedni sprzęt (TV 3D).




gatunek: Fantasy, Przygodowy
premiera: 9 kwietnia 2010 (Polska) 26 marca 2010 (świat)
produkcja: USA

Perseusz (Sam Worthington), urodzony jako bóg, ale wychowany jak człowiek, nie jest w stanie uratować swojej rodziny przed Hadesem (Ralph Fiennes) - mściwym bogiem świata zmarłych. Nie mając nic do stracenia mężczyzna zgłasza się na ochotnika, by poprowadzić wyprawę do zakazanego świata Hadesa i pokonać go, zanim ten odbierze moc Zeusowi (Liam Neeson) i sprowadzi na ziemię chaos. Wraz z grupą śmiałych wojowników wyrusza w ryzykowną podróż, podczas której będzie walczyć z groźnymi demonami i strasznymi bestiami. Przeżyje tylko wtedy, jeśli uwierzy w swoją boską moc, przeciwstawi się swojemu przeznaczeniu i zacznie pisać swój własny los. Remake filmowej wersji z 1981

Kopie 3D SBS(OU) mini-HD, to kopie specjalistyczne o dużej rozdzielczości (1920 x 1080 ), które mimo niewielkiego ciężaru (w MB) zachowują wysoką jakość.

Szczególnie polecam tym, którzy chcą zaoszczędzić czas i przestrzeń na dysku.

Taką kopię można także bez problemu nagrać na zwykłą płytę DVD lub przenieś na zewnętrzną pamięć.

Ważne jest również to, że tą wersję mogą obejrzeć osoby, których sprzęt ma ograniczenia w postaci obsługi tylko formatu FAT, jak wiadomo taki format obsłuży filmy, które mają maksymalnie 4GB, więc w tym przypadku ta wersja jest też dla nich.

TĄ KOPIE WYKONAŁ LEON 345 SPECJALNIE DLA WAS

General
Complete name : E:FilmyFilmy 3DSBS 3DStarcie Tytanów 3D(Leon 345)CLASH_O_TITANS_3D(Leon 345).mkv
Format : Matroska
File size : 3.67 GiB
Duration : 1h 46mn
Overall bit rate : 4 956 Kbps
Movie name : CLASH_O_TITANS_3D_RMX_BLUEBIRD.Title0.Bluray3DRip
Encoded date : UTC 2012-04-17 12:59:57
Writing application : mkvmerge v5.2.1 ('A Far Off Place') built on Jan 2 2012 23:21:10
Writing library : libebml v1.2.3 + libmatroska v1.3.0

Video
ID : 1
Format : AVC
Format/Info : Advanced Video Codec
Format profile : High@L5.1
Format settings, CABAC : Yes
Format settings, ReFrames : 2 frames
Muxing mode : Container profile=Unknown@5.1
Codec ID : V_MPEG4/ISO/AVC
Duration : 1h 46mn
Bit rate : 4 409 Kbps
Width : 1 920 pixels
Height : 1 080 pixels
Display aspect ratio : 16:9
Frame rate : 23.976 fps
Resolution : 8 bits
Colorimetry : 4:2:0
Scan type : Progressive
Bits/(Pixel*Frame) : 0.089
Stream size : 3.27 GiB (89%)
Writing library : x264 core
Color primaries : BT.709-5, BT.1361, IEC 61966-2-4, SMPTE RP177
Transfer characteristics : BT.709-5, BT.1361
Matrix coefficients : BT.709-5, BT.1361, IEC 61966-2-4 709, SMPTE RP177

Audio
ID : 2
Format : AC-3
Format/Info : Audio Coding 3
Codec ID : A_AC3
Duration : 1h 46mn
Bit rate mode : Constant
Bit rate : 448 Kbps
Channel(s) : 6 channels
Channel positions : Front: L C R, Side: L R, LFE
Sampling rate : 48.0 KHz
Stream size : 340 MiB (9%)
Title : Leon 345
Language : Polish

Menu
00:00:00.000 : en:(01)00:00:00:000
00:05:39.839 : en:(02)00:05:39:839
00:10:07.607 : en:(03)00:10:07:607
00:14:25.239 : en:(04)00:14:25:239
00:20:58.632 : en:(05)00:20:58:632
00:26:07.107 : en:(06)00:26:07:107
00:31:59.876 : en:(07)00:31:59:876
00:38:19.547 : en:(08)00:38:19:547
00:47:03.779 : en:(09)00:47:03:779
00:52:45.620 : en:(10)00:52:45:620
00:59:20.306 : en:(11)00:59:20:306
01:07:02.852 : en:(12)01:07:02:852
01:13:17.267 : en:(13)01:13:17:267
01:19:37.314 : en:(14)01:19:37:314
01:26:01.114 : en:(15)01:26:01:114
01:31:52.089 : en:(16)01:31:52:089
01:35:23.175 : en:(17)01:35:23:175
Ocena użytkowników Help
Działa(0) | Fake(0) | Nie działa(0) | Wymagane hasło(0) | Wirus(0)
Statystyki seed/leech Ostatnio aktualizowane: 2018-01-17 19:22:23 [Aktualizuj]
Napisano: 24.01.2022 02:19
 
Nikt jeszcze nie skomentował tego torrenta... Może Ty to zrobisz?
Oświadczenie: Pliki prezentowane w katalogu nie znajdują się na serwerach wortalu. Użytkownicy zezwolili na ich udostępnienie. Administrator serwisu BitNova.info oraz właściciel serwera nie może ponieść konsekwencji za to co użytkownicy udostępniają i publikują. Pamiętaj! Nie możesz używać tego serwisu do rozpowszechniania lub ściągania materiałów do których nie masz odpowiednich praw lub licencji. Użytkownicy są odpowiedzialni za przestrzeganie tych zasad.

(Disclaimer: None files presented in the directory aren't hosted on servers vortal. Users allow their release. The administrator of site BitNova.info and owner of the server can not be held responsible for what its users post, or any other actions of its users. You may not use this site to distribute or download any material when you do not have the legal rights to do so. It is your own responsibility to adhere to these terms.)
» Zgłaszanie nadużyć / Abuse