Jedyny taki katalog polskich torrentów w sieci. Najlepsze torrenty w jednym miejscu.

Korzystanie ze strony jest darmowe. W przeciwieństwie do konkurencji nie kasujemy kont użytkowników bez ich wyraźnej prośby.


Torrent: Mała matura 1947 (2010) [DVDRip] [XviD] [PL] [D-E-V-I-L]

Mała matura 1947 (2010) [DVDRip] [XviD] [PL] [D-E-V-I-L] torrent
Dodał: DEVIL1234
30.10.2011 13:21
Kategoria: Dramat

Rozmiar: 698.36 MB
Seed'ów: (?)
Leecher'ów: (?)
Pobrań: (?)

Kondycja:
 


» Komentarze [0]
» Obserwuj
» Zgłoś plik
reżyseria: Janusz Majewski
scenariusz: Janusz Majewski
premiera: 15 kwietnia 2011 (Polska) 24 maja 2010 (Świat)
gatunek: Dramat historyczny

==================
...::: OPIS FILMU :::...
==================

pełna humoru opowieść o dojrzewaniu w pierwszych burzliwych latach powojennej Polski. Ludwik wraz z rodzicami przeprowadza się do Krakowa i rozpoczyna naukę w jednym z najlepszych gimnazjów w mieście. Jako ?nowy? musi szybko zyskać uznanie kolegów. Jego idolem staje się starszy o dwa lata Marek ? chłopak o którym mówi się, że brał udział w walkach Powstania Warszawskiego 1944 roku. W Ludwiku rośnie burza sprzecznych emocji. Oprócz pierwszych, miłosnych zauroczeń i kontaktów seksualnych do głosu dochodzi również bunt przeciw niesprawiedliwej władzy oraz chęć naśladowania niepokornego idola ze starszego rocznika. W życiu Ludwika pojawiają się pościgi, aresztowania i strzelaniny na ulicy, które stają się wydarzeniami wyznaczającymi okres dojrzewania chłopaka.

==============
...::: OBSADA :::...
==============

Adam Wróblewski...Ludwik Taschke
Antoni Królikowski...Romek Szrama
Marek Kondrat...Profesor Matoń, łacinnik
Wojciech Pszoniak...Major Trzaska
Wiktor Zborowski...Profesor "Syfon", matematyk, wychowawca klasy
Agnieszka Michalska...Maria Taschke, matka Ludwika
Artur Żmijewski...Tadeusz Taschke, ojciec Ludwika
Sonia Bohosiewicz...Mecenasowa Halberowa
Olgierd Łukaszewicz...Wiliński, dyrektor gimnazjum
Marian Opania...Profesor Schlapka, germanista

=======================
...::: DANE TECHNICZNE :::...
=======================

Format : AVI
Format/Info : Audio Video Interleave
File size : 698 MiB
Duration : 1h 49mn
Overall bit rate : 894 Kbps
Writing application : transcode-1.1.5

Video

ID : 0
Format : MPEG-4 Visual
Format profile : Advanced Simple@L5
Format settings, BVOP : 1
Format settings, QPel : No
Format settings, GMC : No warppoints
Format settings, Matrix : Default (H.263)
Codec ID : XVID
Codec ID/Hint : XviD
Duration : 1h 49mn
Bit rate : 756 Kbps
Width : 624 pixels
Height : 352 pixels
Display aspect ratio : 16:9
Frame rate : 25.000 fps
Color space : YUV
Chroma subsampling : 4:2:0
Bit depth : 8 bits
Scan type : Progressive
Compression mode : Lossy
Bits/(Pixel*Frame) : 0.138
Stream size : 591 MiB (85%)
Writing library : XviD 1.2.1 (UTC 2008-12-04)

Audio

ID : 1
Format : MPEG Audio
Format version : Version 1
Format profile : Layer 3
Mode : Joint stereo
Mode extension : MS Stereo
Codec ID : 55
Codec ID/Hint : MP3
Duration : 1h 49mn
Bit rate mode : Constant
Bit rate : 128 Kbps
Channel(s) : 2 channels
Sampling rate : 48.0 KHz
Compression mode : Lossy
Stream size : 100.0 MiB (14%)
Alignment : Split accross interleaves
Interleave, duration : 40 ms (1.00 video frame)
Writing library : LAME3.98.2

=====================
...::: INFO O FILMIE :::...
=====================

http://www.filmweb.pl/film/Ma%C5%82a+matura+1947-2010-480867
Ocena użytkowników Help
Działa(0) | Fake(0) | Nie działa(0) | Wymagane hasło(0) | Wirus(0)
Statystyki seed/leech Ostatnio aktualizowane: 2020-09-27 18:42:14 [Aktualizuj]
Napisano: 02.03.2021 11:50
 
Nikt jeszcze nie skomentował tego torrenta... Może Ty to zrobisz?
Oświadczenie: Pliki prezentowane w katalogu nie znajdują się na serwerach wortalu. Użytkownicy zezwolili na ich udostępnienie. Administrator serwisu BitNova.info oraz właściciel serwera nie może ponieść konsekwencji za to co użytkownicy udostępniają i publikują. Pamiętaj! Nie możesz używać tego serwisu do rozpowszechniania lub ściągania materiałów do których nie masz odpowiednich praw lub licencji. Użytkownicy są odpowiedzialni za przestrzeganie tych zasad.

(Disclaimer: None files presented in the directory aren't hosted on servers vortal. Users allow their release. The administrator of site BitNova.info and owner of the server can not be held responsible for what its users post, or any other actions of its users. You may not use this site to distribute or download any material when you do not have the legal rights to do so. It is your own responsibility to adhere to these terms.)
» Zgłaszanie nadużyć / Abuse