Jedyny taki katalog polskich torrentów w sieci. Najlepsze torrenty w jednym miejscu.

Korzystanie ze strony jest darmowe. W przeciwieństwie do konkurencji nie kasujemy kont użytkowników bez ich wyraźnej prośby.


Torrent: Geneza Red Faction - Red Faction Origins [ENG] *2011* [DVDRip.XviD-miguel] [Napisy PL]

Geneza Red Faction - Red Faction Origins [ENG] *2011* [DVDRip.XviD-miguel] [Napisy PL] torrent
Dodał: miquel
03.09.2011 15:26
Kategoria: Sci-Fi

Rozmiar: 703.91 MB
Seed'ów: (?)
Leecher'ów: (?)
Pobrań: (?)

Kondycja:
 


» Komentarze [0]
» Obserwuj
» Zgłoś plik
Produkcja.....: USA
Gatunek.......: Sci-Fi
Data premiery.: 04.06.2011 [Świat]
Reżyseria.....: Michael Nankin
Scenariusz....: Danny Bilson, Paul De Meo
Czas trwania..: 91 min.
More..........: http://www.imdb.com/title/tt1693872
Trailer.......: http://www.youtube.com/watch?v=q7RN9dioQyo

Opis :
Jest rok 2125. Minęło już dwadzieścia pięć lat od kiedy Alec Mason poprowadził Kolonie Marsjańskie do wolności. Jake Mason, jako strażnik z Red Faction dba o utrzymanie wywalczonej przez ojca autonomii. Na swojej drodze napotyka potężnego wroga w postaci niebezpiecznej i tajemniczej grupy - White Faction.

Obsada :
Brian J. Smith ... Jake
Danielle Nicolet ... Tess De La Vega
Kate Vernon ... The Matriarch
Tamzin Merchant ... Lyra
Devon Graye ... Leo
Gordon Kennedy ... Corvallis
Gareth David Lloyd ... Hale
Ariyon Bakare ... Ben Sharpe
Peter Bankole ... Ezra
Roger Ashton Griffiths ... Grogan
Robert Patrick ... Alec
Sarah Brown ... Sam
Samuel Davies ... Young Jake
Isabella Blake Thomas ... Young Lyra
Mitchell Mullen ... Ludlum

Dane Techniczne :
!!! SAMPLE !!!
Audio.....: Angielskie
Napisy....: Polskie .txt, Angielskie .srt
Format : AVI
Format/Info : Audio Video Interleave
File size : 700 MiB
Duration : 1h 31mn
Overall bit rate : 1 072 Kbps
Writing application : VirtualDubMod 1.5.10.2 (build 2540/release)
Writing library : VirtualDubMod build 2540/release
Video
ID : 0
Format : MPEG-4 Visual
Format profile : Advanced Simple@L5
Format settings, BVOP : Yes
Format settings, QPel : No
Format settings, GMC : No warppoints
Format settings, Matrix : Default (H.263)
Codec ID : XVID
Codec ID/Hint : XviD
Duration : 1h 31mn
Bit rate : 937 Kbps
Width : 640 pixels
Height : 352 pixels
Display aspect ratio : 16:9
Frame rate : 23.976 fps
Color space : YUV
Chroma subsampling : 4:2:0
Bit depth : 8 bits
Scan type : Progressive
Bits/(Pixel*Frame) : 0.174
Stream size : 612 MiB (87%)
Writing library : XviD 1.2.1 (UTC 2008-12-04)
Audio
ID : 1
Format : MPEG Audio
Format version : Version 1
Format profile : Layer 3
Mode : Joint stereo
Mode extension : MS Stereo
Codec ID : 55
Codec ID/Hint : MP3
Duration : 1h 31mn
Bit rate mode : Variable
Bit rate : 127 Kbps
Channel(s) : 2 channels
Sampling rate : 48.0 KHz
Stream size : 79.5 MiB (11%)
Alignment : Aligned on interleaves
Interleave, duration : 24 ms (0.58 video frame)
Interleave, preload duration : 151 ms
Writing library : LAME3.97
Encoding settings : -m j -V 4 -q 3 -lowpass 17 --abr 127

Screen :
http://img545.imageshack.us/img545/5928/redfactionorigins2011s1.jpg
http://img35.imageshack.us/img35/3455/redfactionorigins2011s2.jpg
http://img269.imageshack.us/img269/6466/redfactionorigins2011s3.jpg
http://img841.imageshack.us/img841/8835/redfactionorigins2011s4.jpg
http://img685.imageshack.us/img685/1976/redfactionorigins2011s5.jpg

EDIT:strus
Ocena użytkowników Help
Działa(0) | Fake(0) | Nie działa(0) | Wymagane hasło(0) | Wirus(0)
Statystyki seed/leech Ostatnio aktualizowane: 2020-03-29 11:48:56 [Aktualizuj]
Napisano: 27.01.2022 17:34
 
Nikt jeszcze nie skomentował tego torrenta... Może Ty to zrobisz?
Oświadczenie: Pliki prezentowane w katalogu nie znajdują się na serwerach wortalu. Użytkownicy zezwolili na ich udostępnienie. Administrator serwisu BitNova.info oraz właściciel serwera nie może ponieść konsekwencji za to co użytkownicy udostępniają i publikują. Pamiętaj! Nie możesz używać tego serwisu do rozpowszechniania lub ściągania materiałów do których nie masz odpowiednich praw lub licencji. Użytkownicy są odpowiedzialni za przestrzeganie tych zasad.

(Disclaimer: None files presented in the directory aren't hosted on servers vortal. Users allow their release. The administrator of site BitNova.info and owner of the server can not be held responsible for what its users post, or any other actions of its users. You may not use this site to distribute or download any material when you do not have the legal rights to do so. It is your own responsibility to adhere to these terms.)
» Zgłaszanie nadużyć / Abuse