Jedyny taki katalog polskich torrentów w sieci. Najlepsze torrenty w jednym miejscu.

Korzystanie ze strony jest darmowe. W przeciwieństwie do konkurencji nie kasujemy kont użytkowników bez ich wyraźnej prośby.


Torrent: Return To The Hiding Place *2011* [DVDRip.XviD-miguel] [ENG]

Return To The Hiding Place *2011* [DVDRip.XviD-miguel] [ENG] torrent
Dodał: miquel
29.08.2011 19:16
Kategoria: Thriller

Rozmiar: 1.38 GB
Seed'ów: 0
Leecher'ów: 0
Pobrań: 0

Kondycja:
 


» Komentarze [0]
» Obserwuj
» Zgłoś plik
Produkcja.....: USA
Gatunek.......: Thriller, Dramat, Historyczny, Wojenny
Data premiery.: 2011 [Świat]
Reżyseria.....: Peter C. Spencer
Scenariusz....: Peter C. Spencer
Czas trwania..: 124 min.
More..........: http://www.imdb.com/title/tt1691153
Trailer.......: http://www.youtube.com/watch?v=HTZtGgk-EqI

Opis :
Gdy Naziści zaczynają zabijać Żydów mieszkających w Holandii, grupa młodych, lecz odważnych ludzi staje w ich obronie.

Obsada :
John Rhys Davies ... Eusi
Mimi Sagadin ... Corrie ten Boom
Craig Robert Young ... Piet Hartog
David Thomas Jenkins ... Hans Poley
Rachel Spencer Hewitt ... Aty van Woerden
Suzy Brack ... Nollie ten Boom van Woerden
Joanie Stewart ... Betsie ten Boom
Stass Klassen ... Colonel von Laeman
Gary Moore ... Lars
Louie Lawless ... Board Member
Steve Christopher ... Laurent Mathijs
Charlie Jensen ... De Vries
Korey Simeone ... Pickwick
Mark Boyd ... Karl
Walt Sloan ... Herman Poley

Dane Techniczne :
!!! SAMPLE !!!
Audio.....: Angielskie
Napisy....: Brak
Format : AVI
Format/Info : Audio Video Interleave
File size : 1.37 GiB
Duration : 2h 3mn
Overall bit rate : 1 589 Kbps
Writing application : VirtualDubMod 1.5.10.2 (build 2540/release)
Writing library : VirtualDubMod build 2540/release
Video
ID : 0
Format : MPEG-4 Visual
Format profile : Advanced Simple@L5
Format settings, BVOP : Yes
Format settings, QPel : No
Format settings, GMC : No warppoints
Format settings, Matrix : Default (H.263)
Muxing mode : Packed bitstream
Codec ID : XVID
Codec ID/Hint : XviD
Duration : 2h 3mn
Bit rate : 1 195 Kbps
Width : 720 pixels
Height : 400 pixels
Display aspect ratio : 16:9
Frame rate : 25.000 fps
Color space : YUV
Chroma subsampling : 4:2:0
Bit depth : 8 bits
Scan type : Progressive
Bits/(Pixel*Frame) : 0.166
Stream size : 1.03 GiB (75%)
Writing library : XviD 64
Audio
ID : 1
Format : AC-3
Format/Info : Audio Coding 3
Mode extension : CM (complete main)
Codec ID : 2000
Duration : 2h 3mn
Bit rate mode : Constant
Bit rate : 384 Kbps
Channel(s) : 6 channels
Channel positions : Front: L C R, Side: L R, LFE
Sampling rate : 48.0 KHz
Bit depth : 16 bits
Stream size : 340 MiB (24%)
Alignment : Split accross interleaves
Interleave, duration : 40 ms (1.00 video frame)
Interleave, preload duration : 500 ms

Screen :
http://img850.imageshack.us/img850/4906/returntothehidingplace2.jpg
http://img838.imageshack.us/img838/4906/returntothehidingplace2.jpg
http://img824.imageshack.us/img824/4906/returntothehidingplace2.jpg
http://img819.imageshack.us/img819/4906/returntothehidingplace2.jpg
http://img716.imageshack.us/img716/4906/returntothehidingplace2.jpg
Ocena użytkowników Help
Działa(0) | Fake(0) | Nie działa(0) | Wymagane hasło(0) | Wirus(0)
Statystyki seed/leech Ostatnio aktualizowane: 2011-08-29 19:16:34 [Aktualizuj]
Napisano: 27.02.2021 20:13
 
Nikt jeszcze nie skomentował tego torrenta... Może Ty to zrobisz?
Oświadczenie: Pliki prezentowane w katalogu nie znajdują się na serwerach wortalu. Użytkownicy zezwolili na ich udostępnienie. Administrator serwisu BitNova.info oraz właściciel serwera nie może ponieść konsekwencji za to co użytkownicy udostępniają i publikują. Pamiętaj! Nie możesz używać tego serwisu do rozpowszechniania lub ściągania materiałów do których nie masz odpowiednich praw lub licencji. Użytkownicy są odpowiedzialni za przestrzeganie tych zasad.

(Disclaimer: None files presented in the directory aren't hosted on servers vortal. Users allow their release. The administrator of site BitNova.info and owner of the server can not be held responsible for what its users post, or any other actions of its users. You may not use this site to distribute or download any material when you do not have the legal rights to do so. It is your own responsibility to adhere to these terms.)
» Zgłaszanie nadużyć / Abuse