Jedyny taki katalog polskich torrentów w sieci. Najlepsze torrenty w jednym miejscu.

Korzystanie ze strony jest darmowe. W przeciwieństwie do konkurencji nie kasujemy kont użytkowników bez ich wyraźnej prośby.


Torrent: Tunel - The Tunnel *2011* [DVDRip.XviD-miguel] [ENG]

Tunel - The Tunnel *2011* [DVDRip.XviD-miguel] [ENG] torrent
Dodał: miquel
22.07.2011 18:07
Kategoria: Filmy DivX/XviD

Rozmiar: 820.61 MB
Seed'ów: (?)
Leecher'ów: (?)
Pobrań: (?)

Kondycja:
 


» Komentarze [0]
» Obserwuj
» Zgłoś plik
Produkcja.....: Australia
Gatunek.......: Horror, Thriller, Dramat
Data premiery.: 2011 [Świat]
Reżyseria.....: Carlo Ledesma
Scenariusz....: Enzo Tedeschi, Julian Harvey
Czas trwania..: 91 min.
More..........: http://www.imdb.com/title/tt1735485
Trailer.......: http://www.imdb.com/video/wab/vi1930336793
Trailer.......: http://www.youtube.com/watch?v=8a_2fKmjekk

Opis :
W Sydney zostaje odkryta podziemna sieć tuneli, którymi niegdyś kursowały pociągi. Do opuszczonych tuneli udaje się młoda dziennikarka, która zamierza opisać je w swoim artykule.

Obsada :
Bel Delia ... Natasha
Andy Rodoreda ... Peter
Steve Davis ... Steve
Luke Arnold ... Tangles
Goran D. Kleut ... Stalker
James Caitlin ... Trevor
Rebecca Clay ... Emergency Operator (voice)
Jessica Fallico ... Jess
Arianna Gusi ... Kate
Ben James ... Dez (voice)
Russell Jeffrey ... Sef
Shannon Jones ... Jane Schmidt
Renee Lim ... Lisa Lung
Ben Maclaine ... Security Guard
Peter McAllum ... Government Minister

Dane Techniczne :
!!! SAMPLE !!!
Audio.....: Angielskie
Napisy....: Angielskie .srt
Format : AVI
Format/Info : Audio Video Interleave
File size : 817 MiB
Duration : 1h 31mn
Overall bit rate : 1 252 Kbps
Writing application : MEncoder Sherpya-SVN-r32492-4.2.5
Writing library : MPlayer
Video
ID : 0
Format : MPEG-4 Visual
Format profile : Simple@L3
Format settings, BVOP : No
Format settings, QPel : No
Format settings, GMC : No warppoints
Format settings, Matrix : Default (H.263)
Codec ID : XVID
Codec ID/Hint : XviD
Duration : 1h 31mn
Bit rate : 1 016 Kbps
Width : 640 pixels
Height : 360 pixels
Display aspect ratio : 16:9
Frame rate : 25.000 fps
Color space : YUV
Chroma subsampling : 4:2:0
Bit depth : 8 bits
Scan type : Progressive
Bits/(Pixel*Frame) : 0.176
Stream size : 663 MiB (81%)
Writing library : XviD 1.2.1 (UTC 2008-12-04)
Audio
ID : 1
Format : MPEG Audio
Format version : Version 1
Format profile : Layer 3
Mode : Joint stereo
Mode extension : MS Stereo
Codec ID : 55
Codec ID/Hint : MP3
Duration : 1h 31mn
Bit rate mode : Variable
Bit rate : 224 Kbps
Channel(s) : 2 channels
Sampling rate : 48.0 KHz
Stream size : 145 MiB (18%)
Alignment : Aligned on interleaves
Interleave, duration : 24 ms (0.60 video frame)
Interleave, preload duration : 669 ms

Screen :
http://img846.imageshack.us/img846/2802/thetunnel2011s1.jpg
http://img856.imageshack.us/img856/9597/thetunnel2011s2.jpg
http://img600.imageshack.us/img600/6053/thetunnel2011s3.jpg
http://img807.imageshack.us/img807/4671/thetunnel2011s4.jpg
http://img714.imageshack.us/img714/4586/thetunnel2011s5.jpg
Ocena użytkowników Help
Działa(0) | Fake(0) | Nie działa(0) | Wymagane hasło(0) | Wirus(0)
Statystyki seed/leech Ostatnio aktualizowane: 2019-06-11 09:06:41 [Aktualizuj]
Napisano: 01.12.2021 14:41
 
Nikt jeszcze nie skomentował tego torrenta... Może Ty to zrobisz?
Oświadczenie: Pliki prezentowane w katalogu nie znajdują się na serwerach wortalu. Użytkownicy zezwolili na ich udostępnienie. Administrator serwisu BitNova.info oraz właściciel serwera nie może ponieść konsekwencji za to co użytkownicy udostępniają i publikują. Pamiętaj! Nie możesz używać tego serwisu do rozpowszechniania lub ściągania materiałów do których nie masz odpowiednich praw lub licencji. Użytkownicy są odpowiedzialni za przestrzeganie tych zasad.

(Disclaimer: None files presented in the directory aren't hosted on servers vortal. Users allow their release. The administrator of site BitNova.info and owner of the server can not be held responsible for what its users post, or any other actions of its users. You may not use this site to distribute or download any material when you do not have the legal rights to do so. It is your own responsibility to adhere to these terms.)
» Zgłaszanie nadużyć / Abuse