Jedyny taki katalog polskich torrentów w sieci. Najlepsze torrenty w jednym miejscu.

Korzystanie ze strony jest darmowe. W przeciwieństwie do konkurencji nie kasujemy kont użytkowników bez ich wyraźnej prośby.


Torrent: The Orphan Killer *2011* [DVDRip.XviD-miguel] [ENG]

The Orphan Killer *2011* [DVDRip.XviD-miguel] [ENG] torrent
Dodał: miquel
09.07.2011 01:19
Kategoria: Filmy DivX/XviD

Rozmiar: 900.66 MB
Seed'ów: (?)
Leecher'ów: (?)
Pobrań: (?)

Kondycja:
 


» Komentarze [0]
» Obserwuj
» Zgłoś plik
Produkcja.....: USA
Gatunek.......: Horror
Data premiery.: 2011 [Świat]
Reżyseria.....: Matt Farnsworth
Scenariusz....: Matt Farnsworth
Czas trwania..: 83 min.
More..........: http://www.imdb.com/title/tt1179071
Trailer.......: http://www.youtube.com/watch?v=tCx1-Lxd_rg

Opis :
Historia dziewczynki o imieniu Audrey oraz jej brata Marcusa. W dzieciństwie oboje doświadczyli okropnego przeżycia – na ich oczach brutalnie zamordowano ich rodziców. Dziewczynka zostaje adoptowana przez kochającego samotnego ojca, zaś Marcus trafia do sierocińca gdzie jest wykorzystywany seksualnie. Przez traumatyczne przeżycia które Marcus przeżył w tak młodym wieku, zmienia się w potwora i musi zostać umieszczony w zakładzie zamkniętym. Cierpliwie czeka na jakąkolwiek szansę ucieczki. A kiedy już to zrobi, kara nie minie tych przez których stał się tym kim jest…

Obsada :
Diane Foster ... Audrey
David Backus ... The Orphan Killer
Matt Farnsworth ... Mike
James McCaffrey ... Detective Jones
John Savage ... Detective Walker
Karen Young ... Sister Mary
Charlotte Maier ... Sister Constance
Spencer List ... Young Marcus
Dana DeVestern ... Young Audrey
Margot White ... Jenny Miller
Mike Doyle ... Marcus Miller Sr.
Ivan Martin ... Jim
Karen Olivo ... Angie
Matthew Arkin ... Bob
Ezra Knight ... Simon

Dane Techniczne :
!!! SAMPLE !!!
Audio.....: Angielskie
Napisy....: Brak
Format : AVI
Format/Info : Audio Video Interleave
File size : 896 MiB
Duration : 1h 22mn
Overall bit rate : 1 518 Kbps
Writing application : VirtualDubMod 1.5.4.1 (build 2178/release)
Writing library : VirtualDubMod build 2178/release
Video
ID : 0
Format : MPEG-4 Visual
Format profile : Advanced Simple@L5
Format settings, BVOP : Yes
Format settings, QPel : No
Format settings, GMC : No warppoints
Format settings, Matrix : Custom
Codec ID : XVID
Codec ID/Hint : XviD
Duration : 1h 22mn
Bit rate : 1 254 Kbps
Width : 720 pixels
Height : 304 pixels
Display aspect ratio : 2.35:1
Frame rate : 29.970 fps
Color space : YUV
Chroma subsampling : 4:2:0
Bit depth : 8 bits
Scan type : Progressive
Bits/(Pixel*Frame) : 0.191
Stream size : 741 MiB (83%)
Writing library : XviD 64
Audio
ID : 1
Format : AC-3
Format/Info : Audio Coding 3
Mode extension : CM (complete main)
Codec ID : 2000
Duration : 1h 22mn
Bit rate mode : Constant
Bit rate : 256 Kbps
Channel(s) : 6 channels
Channel positions : Front: L C R, Side: L R, LFE
Sampling rate : 48.0 KHz
Bit depth : 16 bits
Stream size : 151 MiB (17%)
Alignment : Aligned on interleaves
Interleave, duration : 96 ms (2.88 video frames)
Interleave, preload duration : 96 ms

Screen :
http://img846.imageshack.us/img846/2783/theorphankiller2011s1.jpg
http://img641.imageshack.us/img641/8638/theorphankiller2011s2.jpg
http://img845.imageshack.us/img845/3443/theorphankiller2011s3.jpg
http://img707.imageshack.us/img707/8721/theorphankiller2011s4.jpg
http://img823.imageshack.us/img823/4150/theorphankiller2011s5.jpg
Ocena użytkowników Help
Działa(0) | Fake(0) | Nie działa(0) | Wymagane hasło(0) | Wirus(0)
Statystyki seed/leech Ostatnio aktualizowane: 2019-08-08 18:45:02 [Aktualizuj]
Napisano: 09.12.2021 02:46
 
Nikt jeszcze nie skomentował tego torrenta... Może Ty to zrobisz?
Oświadczenie: Pliki prezentowane w katalogu nie znajdują się na serwerach wortalu. Użytkownicy zezwolili na ich udostępnienie. Administrator serwisu BitNova.info oraz właściciel serwera nie może ponieść konsekwencji za to co użytkownicy udostępniają i publikują. Pamiętaj! Nie możesz używać tego serwisu do rozpowszechniania lub ściągania materiałów do których nie masz odpowiednich praw lub licencji. Użytkownicy są odpowiedzialni za przestrzeganie tych zasad.

(Disclaimer: None files presented in the directory aren't hosted on servers vortal. Users allow their release. The administrator of site BitNova.info and owner of the server can not be held responsible for what its users post, or any other actions of its users. You may not use this site to distribute or download any material when you do not have the legal rights to do so. It is your own responsibility to adhere to these terms.)
» Zgłaszanie nadużyć / Abuse