Jedyny taki katalog polskich torrentów w sieci. Najlepsze torrenty w jednym miejscu.

Korzystanie ze strony jest darmowe. W przeciwieństwie do konkurencji nie kasujemy kont użytkowników bez ich wyraźnej prośby.


Torrent: Świątynia - The Shrine *2010* [DVDRip.XviD-miguel] [ENG]

Świątynia - The Shrine *2010* [DVDRip.XviD-miguel] [ENG] torrent
Dodał: miquel
03.06.2011 18:40
Kategoria: Filmy DivX/XviD

Rozmiar: 0.99 GB
Seed'ów: 56
Leecher'ów: 32
Pobrań: 10

Kondycja:
 


» Komentarze [0]
» Obserwuj
» Zgłoś plik
Produkcja.....: Kanada
Gatunek.......: Horror
Data premiery.: 09.06.2010 [Świat]
Reżyseria.....: Jon Knautz
Scenariusz....: Jon Knautz
Czas trwania..: 84 min.
More..........: http://www.imdb.com/title/tt1341710
Trailer.......: http://www.youtube.com/watch?v=5mcySXKseBE

Opis :
Po tym, jak młody amerykański turysta zaginął w Europie, grupa dziennikarzy łączy jego zniknięcie z małą wioską w Polsce zwaną Alwainia. Dzięki późniejszemu śledztwu odkrywają historię Alwainii związaną z dziwnym kultem opartym na składaniu w ofierze ludzi. Zdeterminowani chęcią odkrycia prawdy docierają do małej wioski, gdzie prześladuje ich tajemnicza grupa. Rozpoczyna się walka o życie. Odkrywają wkrótce, że Alwainia skrywa tajemnicę o wiele mroczniejszą niż mogli sobie wyobrazić...

Obsada :
Cindy Sampson ... Carmen
Aaron Ashmore ... Marcus
Ben Lewis ... Eric Taylor
Meghan Heffern ... Sara
Monica Bugajski ... Emilia
Paulino Nunes ... Henchmen #5
Laura DeCarteret ... Laura Taylor
Connor Stanhope ... Dariusz
Trevor Matthews ... Henryk
Danijel Mandic ... Henchmen #7
Jasmin Geljo ... Purple Cloaked Man #2
Stefen Hayes ... Aleks
David Tompa ... Henchmen #1
Vieslav Krystyan ... Arkadiusz
Voytek Skrzeta ... Henchmen #4

Dane Techniczne :
!!! SAMPLE !!!
Audio.....: Angielskie
Napisy....: Brak
Format : AVI
Format/Info : Audio Video Interleave
File size : 1 006 MiB
Duration : 1h 24mn
Overall bit rate : 1 672 Kbps
Writing library : VirtualDub build 32817/release
Video
ID : 0
Format : MPEG-4 Visual
Format profile : Advanced Simple@L5
Format settings, BVOP : Yes
Format settings, QPel : No
Format settings, GMC : No warppoints
Format settings, Matrix : Custom
Codec ID : XVID
Codec ID/Hint : XviD
Duration : 1h 24mn
Bit rate : 1 471 Kbps
Width : 704 pixels
Height : 386 pixels
Display aspect ratio : 16:9
Frame rate : 23.976 fps
Color space : YUV
Chroma subsampling : 4:2:0
Bit depth : 8 bits
Scan type : Progressive
Bits/(Pixel*Frame) : 0.226
Stream size : 885 MiB (88%)
Writing library : XviD 1.2.1 (UTC 2008-12-04)
Audio
ID : 1
Format : AC-3
Format/Info : Audio Coding 3
Mode extension : CM (complete main)
Codec ID : 2000
Duration : 1h 24mn
Bit rate mode : Constant
Bit rate : 192 Kbps
Channel(s) : 2 channels
Channel positions : Front: L R
Sampling rate : 48.0 KHz
Bit depth : 16 bits
Stream size : 115 MiB (11%)
Alignment : Aligned on interleaves
Interleave, duration : 42 ms (1.00 video frame)
Interleave, preload duration : 512 ms

Screen :
http://img231.imageshack.us/img231/6846/theshrine2010s1.jpg
http://img839.imageshack.us/img839/4033/theshrine2010s2.jpg
http://img28.imageshack.us/img28/5955/theshrine2010s3.jpg
http://img571.imageshack.us/img571/6823/theshrine2010s4.jpg
http://img825.imageshack.us/img825/9677/theshrine2010s5.jpg
Ocena użytkowników Help
Działa(0) | Fake(0) | Nie działa(0) | Wymagane hasło(0) | Wirus(0)
Statystyki seed/leech Ostatnio aktualizowane: 2011-06-13 14:33:45 [Aktualizuj]
Napisano: 30.11.2021 10:23
 
Nikt jeszcze nie skomentował tego torrenta... Może Ty to zrobisz?
Oświadczenie: Pliki prezentowane w katalogu nie znajdują się na serwerach wortalu. Użytkownicy zezwolili na ich udostępnienie. Administrator serwisu BitNova.info oraz właściciel serwera nie może ponieść konsekwencji za to co użytkownicy udostępniają i publikują. Pamiętaj! Nie możesz używać tego serwisu do rozpowszechniania lub ściągania materiałów do których nie masz odpowiednich praw lub licencji. Użytkownicy są odpowiedzialni za przestrzeganie tych zasad.

(Disclaimer: None files presented in the directory aren't hosted on servers vortal. Users allow their release. The administrator of site BitNova.info and owner of the server can not be held responsible for what its users post, or any other actions of its users. You may not use this site to distribute or download any material when you do not have the legal rights to do so. It is your own responsibility to adhere to these terms.)
» Zgłaszanie nadużyć / Abuse