Jedyny taki katalog polskich torrentów w sieci. Najlepsze torrenty w jednym miejscu.

Korzystanie ze strony jest darmowe. W przeciwieństwie do konkurencji nie kasujemy kont użytkowników bez ich wyraźnej prośby.


Torrent: The Violent Kind *2010* [DVDRip.XviD-miguel] [ENG]

The Violent Kind *2010* [DVDRip.XviD-miguel] [ENG] torrent
Dodał: miquel
10.05.2011 02:36
Kategoria: Filmy DivX/XviD

Rozmiar: 701.13 MB
Seed'ów: 104
Leecher'ów: 249
Pobrań: 10

Kondycja:
 


» Komentarze [0]
» Obserwuj
» Zgłoś plik
Produkcja.....: USA
Gatunek.......: Horror
Data premiery.: 25.01.2010 [Świat]
Reżyseria.....: Mitchell Altieri, Phil Flores
Scenariusz....: Phil Flores, Phil Flores
Czas trwania..: 89 min.
More..........: http://www.imdb.com/title/tt1472195
Trailer.......: http://www.imdb.com/video/imdb/vi2302385433
Trailer.......: http://www.youtube.com/watch?v=qf2U38rs1N0

Opis :
Cody i Q to dwóch zwykłych obywateli, na tyle zwykłych ile możemy się spodziewać po członkach gangu motocyklowego w drugim pokoleniu. Kiedy, więc chłopcy rezygnują z napiętego grafiku pełnego dzikiego seksu, narkotyków i robienia kretyńskich żartów, w zamian wybierając stonowaną domówkę, to co może pójść nie tak?

Obsada :
Cory Knauf ... Cody
Taylor Cole ... Shade
Bret Roberts ... Q
Christina Prousalis ... Megan
Tiffany Shepis ... Michelle
Nick Tagas ... Elroy
Joe Egender ... Vernon
Joseph McKelheer ... Jazz
Samuel Child ... Murderball
Mackenzie Firgens ... Trixie
Ilea Matthews ... Pussywagon
Terry Wayne ... Dave
David Fine ... Gin
Gigi Benson ... Pedestrian
Erik Braa ... Driver

Dane Techniczne :
!!! SAMPLE !!!
Audio.....: Angielskie
Napisy....: Brak
Format : AVI
Format/Info : Audio Video Interleave
File size : 699 MiB
Duration : 1h 28mn
Overall bit rate : 1 101 Kbps
Writing application : Nandub v1.0rc2
Writing library : Nandub build 1852/release
Video
ID : 0
Format : MPEG-4 Visual
Format profile : Advanced Simple@L5
Format settings, BVOP : Yes
Format settings, QPel : No
Format settings, GMC : No warppoints
Format settings, Matrix : Default (H.263)
Codec ID : XVID
Codec ID/Hint : XviD
Duration : 1h 28mn
Bit rate : 772 Kbps
Width : 608 pixels
Height : 336 pixels
Display aspect ratio : 16:9
Frame rate : 23.976 fps
Color space : YUV
Chroma subsampling : 4:2:0
Bit depth : 8 bits
Scan type : Progressive
Bits/(Pixel*Frame) : 0.158
Stream size : 490 MiB (70%)
Writing library : XviD 63
Audio
ID : 1
Format : AC-3
Format/Info : Audio Coding 3
Mode extension : CM (complete main)
Codec ID : 2000
Duration : 1h 28mn
Bit rate mode : Constant
Bit rate : 320 Kbps
Channel(s) : 6 channels
Channel positions : Front: L C R, Side: L R, LFE
Sampling rate : 48.0 KHz
Bit depth : 16 bits
Video delay : 500ms
Stream size : 203 MiB (29%)
Alignment : Split accross interleaves
Interleave, duration : 42 ms (1.00 video frame)
Interleave, preload duration : 500 ms

Screen :
http://img707.imageshack.us/img707/8674/theviolentkind2010s1.jpg
http://img703.imageshack.us/img703/8044/theviolentkind2010s2.jpg
http://img29.imageshack.us/img29/1369/theviolentkind2010s3.jpg
http://img194.imageshack.us/img194/7645/theviolentkind2010s4.jpg
http://img864.imageshack.us/img864/8843/theviolentkind2010s5.jpg
Ocena użytkowników Help
Działa(0) | Fake(0) | Nie działa(0) | Wymagane hasło(0) | Wirus(0)
Statystyki seed/leech Ostatnio aktualizowane: 2011-05-10 22:49:03 [Aktualizuj]
Napisano: 25.06.2021 16:06
 
Nikt jeszcze nie skomentował tego torrenta... Może Ty to zrobisz?
Oświadczenie: Pliki prezentowane w katalogu nie znajdują się na serwerach wortalu. Użytkownicy zezwolili na ich udostępnienie. Administrator serwisu BitNova.info oraz właściciel serwera nie może ponieść konsekwencji za to co użytkownicy udostępniają i publikują. Pamiętaj! Nie możesz używać tego serwisu do rozpowszechniania lub ściągania materiałów do których nie masz odpowiednich praw lub licencji. Użytkownicy są odpowiedzialni za przestrzeganie tych zasad.

(Disclaimer: None files presented in the directory aren't hosted on servers vortal. Users allow their release. The administrator of site BitNova.info and owner of the server can not be held responsible for what its users post, or any other actions of its users. You may not use this site to distribute or download any material when you do not have the legal rights to do so. It is your own responsibility to adhere to these terms.)
» Zgłaszanie nadużyć / Abuse