Jedyny taki katalog polskich torrentów w sieci. Najlepsze torrenty w jednym miejscu.

Korzystanie ze strony jest darmowe. W przeciwieństwie do konkurencji nie kasujemy kont użytkowników bez ich wyraźnej prośby.


Torrent: Opowieści z Narnii Lew Czarownica i Stara Szafa - The Chronicles Of Narnia The Lion The Witch And The Wardrobe *2005* [DVDRip.XviD-miguel] [Dubbing PL]

Opowieści z Narnii Lew Czarownica i Stara Szafa - The Chronicles Of Narnia The Lion The Witch And The Wardrobe *2005* [DVDRip.XviD-miguel] [Dubbing PL] torrent
Dodał: miquel
29.04.2011 17:39
Kategoria: Filmy DivX/XviD

Rozmiar: 703.54 MB
Seed'ów: (?)
Leecher'ów: (?)
Pobrań: (?)

Kondycja:
 


» Komentarze [0]
» Obserwuj
» Zgłoś plik
Produkcja.....: USA, Wielka Brytania
Gatunek.......: Fantasy, Familijny, Przygodowy
Data premiery.: 07.12.2005 [Świat]
Reżyseria.....: Andrew Adamson
Scenariusz....: Andrew Adamson, Christopher Markus
Czas trwania..: 137 min.
More..........: http://www.imdb.com/title/tt0363771
Trailer.......: http://www.imdb.com/video/screenplay/vi2682650905
Trailer.......: http://www.youtube.com/watch?v=apoIn3lbmOM

Opis :
Film powstał na podstawie popularnej serii książek dla dzieci autorstwa C.S.Lewisa, mówiących o walce dobra ze złem. Podczas wakacji rodzeństwo - Łucja, Zuzanna, Edmund i Piotr (Lucy, Susan, Edmund, Peter) Pevensie odkrywają magiczną krainę Narnię, do której dostać się można przez drzwi zaczarowanej szafy. W Narnii, pod wpływem uroku rzuconego przez Białą Czarownicę, od 100 lat panuje nieustanna zima. Wszyscy Narnijczycy czekają na powrót lwa Aslana, który jako jedyny pokonać może siły zła. Pomoże mu w tym rodzeństwo Pevensie.

Obsada :
Georgie Henley ... Lucy Pevensie
Skandar Keynes ... Edmund Pevensie
William Moseley ... Peter Pevensie
Anna Popplewell ... Susan Pevensie
Tilda Swinton ... White Witch
James McAvoy ... Mr. Tumnus
Jim Broadbent ... Professor Kirke
Kiran Shah ... Ginarrbrik
James Cosmo ... Father Christmas
Judy McIntosh ... Mrs. Pevensie
Elizabeth Hawthorne ... Mrs. Macready
Patrick Kake ... Oreius
Shane Rangi ... General Otmin
Brandon Cook ... Boy on Train
Cassie Cook ... Girl on Train

Dane Techniczne :
!!! SAMPLE !!!
Audio.....: Dubbing Polski
Napisy....: Brak
Format : AVI
Format/Info : Audio Video Interleave
File size : 699 MiB
Duration : 2h 17mn
Overall bit rate : 713 Kbps
Writing application : VirtualDubMod 1.5.4.1 (build 2178/release)
Writing library : VirtualDubMod build 2178/release
Video
ID : 0
Format : MPEG-4 Visual
Format profile : Advanced Simple@L5
Format settings, BVOP : Yes
Format settings, QPel : No
Format settings, GMC : No warppoints
Format settings, Matrix : Default (H.263)
Muxing mode : Packed bitstream
Codec ID : XVID
Codec ID/Hint : XviD
Duration : 2h 17mn
Bit rate : 596 Kbps
Width : 576 pixels
Height : 256 pixels
Display aspect ratio : 2.25:1
Frame rate : 25.000 fps
Color space : YUV
Chroma subsampling : 4:2:0
Bit depth : 8 bits
Scan type : Progressive
Bits/(Pixel*Frame) : 0.162
Stream size : 585 MiB (84%)
Writing library : XviD 1.1.0 (UTC 2005-11-22)
Audio
ID : 1
Format : MPEG Audio
Format version : Version 1
Format profile : Layer 3
Mode : Joint stereo
Mode extension : MS Stereo
Codec ID : 55
Codec ID/Hint : MP3
Duration : 2h 17mn
Bit rate mode : Variable
Bit rate : 104 Kbps
Nominal bit rate : 112 Kbps
Channel(s) : 2 channels
Sampling rate : 44.1 KHz
Stream size : 102 MiB (15%)
Alignment : Aligned on interleaves
Interleave, duration : 26 ms (0.65 video frame)
Interleave, preload duration : 183 ms
Writing library : LAME3.97b
Encoding settings : -m j -V 4 -q 2 -lowpass 15.6 --abr 112

Screen :
http://img831.imageshack.us/img831/839/thechroniclesofnarniathv.jpg
http://img546.imageshack.us/img546/2205/thechroniclesofnarniatho.jpg
http://img31.imageshack.us/img31/2205/thechroniclesofnarniatho.jpg
http://img88.imageshack.us/img88/3583/thechroniclesofnarniathm.jpg
http://img862.imageshack.us/img862/9053/thechroniclesofnarniathx.jpg
Ocena użytkowników Help
Działa(0) | Fake(0) | Nie działa(0) | Wymagane hasło(0) | Wirus(0)
Statystyki seed/leech Ostatnio aktualizowane: 2021-10-11 07:44:44 [Aktualizuj]
Napisano: 30.11.2021 10:31
 
Nikt jeszcze nie skomentował tego torrenta... Może Ty to zrobisz?
Oświadczenie: Pliki prezentowane w katalogu nie znajdują się na serwerach wortalu. Użytkownicy zezwolili na ich udostępnienie. Administrator serwisu BitNova.info oraz właściciel serwera nie może ponieść konsekwencji za to co użytkownicy udostępniają i publikują. Pamiętaj! Nie możesz używać tego serwisu do rozpowszechniania lub ściągania materiałów do których nie masz odpowiednich praw lub licencji. Użytkownicy są odpowiedzialni za przestrzeganie tych zasad.

(Disclaimer: None files presented in the directory aren't hosted on servers vortal. Users allow their release. The administrator of site BitNova.info and owner of the server can not be held responsible for what its users post, or any other actions of its users. You may not use this site to distribute or download any material when you do not have the legal rights to do so. It is your own responsibility to adhere to these terms.)
» Zgłaszanie nadużyć / Abuse