Jedyny taki katalog polskich torrentów w sieci. Najlepsze torrenty w jednym miejscu.

Korzystanie ze strony jest darmowe. W przeciwieństwie do konkurencji nie kasujemy kont użytkowników bez ich wyraźnej prośby.


Torrent: Miasto złodziei - The Town *2010* [DVDRip] [XviD] [Lektor PL]

Miasto złodziei - The Town *2010* [DVDRip] [XviD] [Lektor PL] torrent
Dodał: oxygen3
26.02.2011 10:53
Kategoria: Filmy DivX/XviD

Rozmiar: 704.33 MB
Seed'ów: (?)
Leecher'ów: (?)
Pobrań: (?)

Kondycja:
 


» Komentarze [0]
» Obserwuj
» Zgłoś plik
produkcja: USA
gatunek: Dramat, Kryminał
premiera: 8 września 2010 (Świat)
reżyseria: Ben Affleck
scenariusz: Ben Affleck, Peter Craig
muzyka: David Buckley , Harry Gregson-Williams
zdjęcia: Robert Elswit
na podstawie: Chuck Hogan "Prince of Thieves" (powieść)
czas trwania: 125 min.

Opis:

Doug MacRay (Ben Affleck) jest niereformowalnym kryminalistą i przywódcą szajki bezwzględnych złodziei okradających banki, których nikt nigdy nie złapał jeszcze na gorącym uczynku. Nie zdarza mu się również wchodzić w zażyłe relacje z ludźmi, co sprawia, że nie obawia się utraty bliskich mu osób. Sytuacja zmienia się, kiedy podczas jednego z napadów zakładniczką zostaje dyrektor banku, Claire Keesey (Rebecca Hall), którą przestępcy puszczają wolno. Kobieta żyje w ciągłym strachu, wiedząc, że złodzieje znają jej adres i nazwisko. Oczarowana jednak skromnym mężczyzną o imieniu Doug szybko zapomina o swoim strachu, nie wiedząc jednocześnie, że to ten sam człowiek, który zaledwie kilka dni temu przetrzymywał ją jako zakładniczkę. Zauroczenie od pierwszego spotkania stopniowo zmienia się w pełen namiętności romans, który może mieć dla pary niebezpieczne, a nawet śmiertelne, konsekwencje.

Obsada:

Ben Affleck: Doug MacRay
Rebecca Hall: Claire Keesey
Jon Hamm: Adam Frawley, tajny agent FBI
Jeremy Renner: James Coughlin
Blake Lively: Krista Coughlin
Pete Postlethwaite: Fergus "Fergie" Colm
Chris Cooper: Stephen MacRay
Nicholas Cairis: Agent FBI
Brian Scannell: Henry
Mark Berglund: Eric

Dane techniczne:

Video
ID : 0
Format : MPEG-4 Visual
Format profile : Advanced Simple@L5
Format settings, BVOP : 2
Format settings, QPel : No
Format settings, GMC : No warppoints
Format settings, Matrix : Default (H.263)
Muxing mode : Packed bitstream
Codec ID : XVID
Codec ID/Hint : XviD
Duration : 2h 4mn
Bit rate : 652 Kbps
Width : 640 pixels
Height : 272 pixels
Display aspect ratio : 2.35:1
Frame rate : 23.976 fps
Color space : YUV
Chroma subsampling : 4:2:0
Bit depth : 8 bits
Scan type : Progressive
Compression mode : Lossy
Bits/(Pixel*Frame) : 0.156
Stream size : 582 MiB (83%)
Writing library : XviD 1.1.0 (UTC 2005-11-22)

Audio
ID : 1
Format : MPEG Audio
Format version : Version 1
Format profile : Layer 3
Mode : Joint stereo
Mode extension : MS Stereo
Codec ID : 55
Codec ID/Hint : MP3
Duration : 2h 4mn
Bit rate mode : Constant
Bit rate : 128 Kbps
Channel(s) : 2 channels
Sampling rate : 44.1 KHz
Compression mode : Lossy
Stream size : 114 MiB (16%)
Ocena użytkowników Help
Działa(0) | Fake(0) | Nie działa(0) | Wymagane hasło(0) | Wirus(0)
Statystyki seed/leech Ostatnio aktualizowane: 2018-04-30 06:43:29 [Aktualizuj]
Napisano: 19.10.2018 13:20
 
Nikt jeszcze nie skomentował tego torrenta... Może Ty to zrobisz?
Oświadczenie: Pliki prezentowane w katalogu nie znajdują się na serwerach wortalu. Użytkownicy zezwolili na ich udostępnienie. Administrator serwisu BitNova.info oraz właściciel serwera nie może ponieść konsekwencji za to co użytkownicy udostępniają i publikują. Pamiętaj! Nie możesz używać tego serwisu do rozpowszechniania lub ściągania materiałów do których nie masz odpowiednich praw lub licencji. Użytkownicy są odpowiedzialni za przestrzeganie tych zasad.

(Disclaimer: None files presented in the directory aren't hosted on servers vortal. Users allow their release. The administrator of site BitNova.info and owner of the server can not be held responsible for what its users post, or any other actions of its users. You may not use this site to distribute or download any material when you do not have the legal rights to do so. It is your own responsibility to adhere to these terms.)
» Zgłaszanie nadużyć / Abuse