Jedyny taki katalog polskich torrentów w sieci. Najlepsze torrenty w jednym miejscu.

Korzystanie ze strony jest darmowe. W przeciwieństwie do konkurencji nie kasujemy kont użytkowników bez ich wyraźnej prośby.


Torrent: Kung Fu Szał - Kung Fu Hustle *2004* [DVDRip.RMVB] [Lektor PL]

Kung Fu Szał - Kung Fu Hustle *2004* [DVDRip.RMVB] [Lektor PL] torrent
Dodał: sokol977
03.02.2010 13:47
Kategoria: Filmy RMVB

Rozmiar: 309.91 MB
Seed'ów: (?)
Leecher'ów: (?)
Pobrań: (?)

Kondycja:
 


» Komentarze [0]
» Obserwuj
» Zgłoś plik
Kung Fu Szał
Kung fu (AKA Gong fu / Kung Fu Hustle) (2004)

podukcja: Chiny , Hongkong
gatunek: Fantasy, Komedia, Sensacyjny, Akcja
data premiery: 2004-09-14 (Świat)

reżyseria Stephen Chow
scenariusz Xin Huo , Stephen Chow
zdjęcia Hang-Sang Poon
muzyka Raymond Wong
czas trwania: 95

Obsada :
Stephen Chow :Sing
Xiaogang Feng :Crocodile Gang Boss
Wah Yuen :Landlord
Zhi Hua Dong :Donut
Kwok Kuen Chan :Brat Sum
Chi Chung Lam :Bone
Qiu Yuen :Landlady
Kai Man Tin :Axe Gang Leader
Shengyi Huang :Fong
Chi Ling Chiu :Krawiec
Yu Xing :Coolie
Si Lu Ren :Suzie
Wellson Chin :Sąsiad A
Oliver Wong :Inspektor
Billy Ma :Członek Gangu Siekier

Opis : "Ucząc się Kung fu, uczysz się jak unikać przemocy – Stephen Chow"


Film, którego akcja rozgrywa się w latach 40. XX wieku w Chinach opowiada historię młodego człowieka, którego największym marzeniem jest zostać gangsterem. Aby to osiągnąć musi wpierw poznać tajniki sztuk walk.






Jakość :
Kung Fu Hustle - Kung Fu Szał.2004.[DVDRip.rmvb][Lek PL]Kung Fu Hustle - Kung Fu Szał (2004) Lektor PL.rmvb
General
Kung Fu Hustle - Kung Fu Szał (2004) Lektor PL.rmvb
Format : RealMedia
File size : 310 MiB
Duration : 1h 35mn
Overall bit rate : 447 Kbps
Video #1
ID : 1
Format : RealVideo 4
Codec ID : RV40
Codec ID/Info : Based on AVC (H.264), Real Player 9
Duration : 1h 35mn
Bit rate : 383 Kbps
Width : 576 pixels
Height : 240 pixels
Display aspect ratio : 2.40:1
Frame rate : 25.000 fps
Resolution : 12 bits
Bits/(Pixel*Frame) : 0.111
Stream size : 261 MiB (84%)
Audio #0
ID : 0
Format : Cooker
Codec ID : cook
Codec ID/Info : Based on G.722.1, Real Player 6
Duration : 1h 35mn
Bit rate : 64.1 Kbps
Channel(s) : 2 channels
Sampling rate : 44.1 KHz
Resolution : 16 bits
Stream size : 43.7 MiB (14%)
Ocena użytkowników Help
Działa(0) | Fake(0) | Nie działa(0) | Wymagane hasło(0) | Wirus(0)
Statystyki seed/leech Ostatnio aktualizowane: 2017-12-07 19:59:33 [Aktualizuj]
Napisano: 14.08.2018 08:38
 
Nikt jeszcze nie skomentował tego torrenta... Może Ty to zrobisz?
Oświadczenie: Pliki prezentowane w katalogu nie znajdują się na serwerach wortalu. Użytkownicy zezwolili na ich udostępnienie. Administrator serwisu BitNova.info oraz właściciel serwera nie może ponieść konsekwencji za to co użytkownicy udostępniają i publikują. Pamiętaj! Nie możesz używać tego serwisu do rozpowszechniania lub ściągania materiałów do których nie masz odpowiednich praw lub licencji. Użytkownicy są odpowiedzialni za przestrzeganie tych zasad.

(Disclaimer: None files presented in the directory aren't hosted on servers vortal. Users allow their release. The administrator of site BitNova.info and owner of the server can not be held responsible for what its users post, or any other actions of its users. You may not use this site to distribute or download any material when you do not have the legal rights to do so. It is your own responsibility to adhere to these terms.)
» Zgłaszanie nadużyć / Abuse