Jedyny taki katalog polskich torrentów w sieci. Najlepsze torrenty w jednym miejscu.

Korzystanie ze strony jest darmowe. W przeciwieństwie do konkurencji nie kasujemy kont użytkowników bez ich wyraźnej prośby.

Torrent: 2009 NBA Playoffs - Chicago Bulls @ Boston Celtics - G5 (04.28) [720p x264 and 5.1 AC3]

2009 NBA Playoffs - Chicago Bulls @ Boston Celtics - G5 (04.28) [720p x264 and 5.1 AC3] torrent
Dodał: mngk
30.04.2009 22:37
Kategoria: Sport

Rozmiar: 4.34 GB
Seed'ów: 1
Leecher'ów: 3
Pobrań: 1899

Kondycja:
 


» Komentarze [1]
» Obserwuj
» Zgłoś plik
Video
Format/Info : Advanced Video Codec
Format profile : High@L3.1
Format settings, CABAC : Yes
Format settings, ReFrames : 4 frames
Muxing mode : Container profile=Unknown@3.1
Codec ID : V_MPEG4/ISO/AVC
Bit rate : 4 110 Kbps
Nominal bit rate : 4 200 Kbps
Width : 1 280 pixels
Height : 720 pixels
Display aspect ratio : 16/9
Frame rate : 29.970 fps
Stream size : 3.83 GiB (88%)

Audio
Format : AC-3
Format/Info : Audio Coding 3
Codec ID : A_AC3
Bit rate mode : Constant
Bit rate : 448 Kbps
Channel(s) : 6 channels
Channel positions : Front: L C R, Surround: L R, LFE
Sampling rate : 48.0 KHz
Stream size : 428 MiB (10%)
Ocena użytkowników Help
Działa(0) | Fake(0) | Nie działa(0) | Wymagane hasło(0) | Wirus(0)
Statystyki seed/leech Ostatnio aktualizowane: 2010-03-06 07:33:24 [Aktualizuj]


lewapik
lewapik
Napisano: 2009-05-05 20:51
 
może chociaż jeden seed?
Oświadczenie: Pliki prezentowane w katalogu nie znajdują się na serwerach wortalu. Użytkownicy zezwolili na ich udostępnienie. Administrator serwisu BitNova.info oraz właściciel serwera nie może ponieść konsekwencji za to co użytkownicy udostępniają i publikują. Pamiętaj! Nie możesz używać tego serwisu do rozpowszechniania lub ściągania materiałów do których nie masz odpowiednich praw lub licencji. Użytkownicy są odpowiedzialni za przestrzeganie tych zasad.

(Disclaimer: None files presented in the directory aren't hosted on servers vortal. Users allow their release. The administrator of site BitNova.info and owner of the server can not be held responsible for what its users post, or any other actions of its users. You may not use this site to distribute or download any material when you do not have the legal rights to do so. It is your own responsibility to adhere to these terms.)
» Zgłaszanie nadużyć / Abuse