Jedyny taki katalog polskich torrentów w sieci. Najlepsze torrenty w jednym miejscu.

Korzystanie ze strony jest darmowe. W przeciwieństwie do konkurencji nie kasujemy kont użytkowników bez ich wyraźnej prośby.


Torrent: Trust 2018 [S01E08] [1080p iT WEB DL H 264 AC3] [Lektor PL]

Trust 2018 [S01E08] [1080p iT WEB DL H 264 AC3] [Lektor PL] torrent
Dodał: Ishimura
17.05.2018 16:19
Kategoria: Seriale obyczajowe

Rozmiar: 0.00 KB
Seed'ów: (?)
Leecher'ów: (?)
Pobrań: (?)

Kondycja:
 


» Komentarze [0]
» Obserwuj
» Zgłoś plik
Info...

Trust - Trust
Sezon 1 - Epizodów 10
gatunek: Kryminał / Dramat
produkcja: USA
czas trwania: ok. 50-60 min.
premiera: 25.03.2018 - Świat (HBO)
twórcy serialu: Danny Boyle, Simon Beaufoy

Ocena FilmWEB: 7,9/10 (218)
Ocena IMDb: 7,8/10 (951)

Opis...

Inspirowany prawdziwymi wydarzeniami serial o niszczącej sile pieniędzy i jednej z najbogatszych i najbardziej nieszczęśliwych rodzin Ameryki - rodzie Gettych. Produkcja laureata Oscara, Dannyego Boylea. Historia zaczyna się w 1973 roku, kiedy zostaje porwany nastoletni John Paul Getty III (Harris Dickinson) - wnuk miliardera i dziedzic fortuny. Porywacze żądają za jego uwolnienie wielomilionowego okupu. Dziadek Paula, J. Paul Getty Sr. (Donald Sutherland), potentat naftowy i miliarder, jest zajęty. Spędza czas w rezydencji Tudorów na angielskiej wsi otoczony haremem kochanek. Ojciec Paula, J. Paul Getty Jr. (Michael Esper) jest zagubiony, nie wie, jak odnaleźć się w sytuacji, nie chce nawet odbierać telefonów. Tylko matka Paula, Gail Getty (Hilary Swank) wydaje się być zaangażowana. Próbuje dotrzeć do porywaczy i negocjować z nimi. Niestety nie ma pieniędzy. Trust przedstawia dramatyczną historię wnuka miliardera będącego w rękach porywaczy, którzy nie potrafią zrozumieć, dlaczego nikt nie chce odzyskać uprowadzonego. Rodzina Gettych ma pieniądze, władzę, ale nie jest wolna od problemów. (opis dystrybutora)

http://www.filmweb.pl/serial/Trust-2018-791105
https://www.imdb.com/title/tt5664952/

Obsada...

Donald Sutherland - J. Paul Getty
Harris Dickinson - J. Paul Getty III
Michael Esper - J. Paul Getty Jr.
Brendan Fraser - James Fletcher Chace
Hilary Swank - Gail Getty
Andrea Arcangeli - Angelo
Luca Marinelli - Primo
Silas Carson - Khan
Francesco Colella - Leonardo
Mauro Lamanna - Dante
Hannah New - Victoria

Dane techniczne...

Format : Matroska
Format version : Version 4 / Version 2
File size : 1.71 GiB
Duration : 43 min 48 s
Overall bit rate mode : Constant
Overall bit rate : 5 603 kb/s
Encoded date : UTC 2018-05-14 17:25:26

Video
ID : 1
Format : AVC
Format/Info : Advanced Video Codec
Format profile : High at L4
Format settings : CABAC / 4 Ref Frames
Format settings, CABAC : Yes
Format settings, ReFrames : 4 frames
Codec ID : V_MPEG4/ISO/AVC
Duration : 43 min 48 s
Bit rate mode : Constant
Bit rate : 5 385 kb/s
Width : 1 916 pixels
Height : 956 pixels
Display aspect ratio : 2.000
Frame rate mode : Constant
Frame rate : 23.976 (24000/1001) FPS
Color space : YUV
Chroma subsampling : 4:2:0
Bit depth : 8 bits
Scan type : Progressive
Bits/(PixelFrame) : 0.123
Stream size : 1.60 GiB (93)
Color range : Limited
Color primaries : BT.709
Transfer characteristics : BT.709
Matrix coefficients : BT.709

Audio
ID : 2
Format : AC-3
Format/Info : Audio Coding 3
Codec ID : A_AC3
Duration : 43 min 48 s
Bit rate mode : Constant
Bit rate : 384 kb/s
Channel(s) : 2 channels
Channel positions : Front: L R
Sampling rate : 48.0 kHz
Frame rate : 31.250 FPS (1536 SPF)
Bit depth : 16 bits
Compression mode : Lossy
Stream size : 120 MiB (7)
Language : Polish
Service kind : Complete Main
Ocena użytkowników Help
Działa(0) | Fake(0) | Nie działa(0) | Wymagane hasło(0) | Wirus(0)
Statystyki seed/leech Ostatnio aktualizowane: 2018-05-10 16:19:31 [Aktualizuj]
Napisano: 24.05.2018 11:59
 
Nikt jeszcze nie skomentował tego torrenta... Może Ty to zrobisz?
Oświadczenie: Pliki prezentowane w katalogu nie znajdują się na serwerach wortalu. Użytkownicy zezwolili na ich udostępnienie. Administrator serwisu BitNova.info oraz właściciel serwera nie może ponieść konsekwencji za to co użytkownicy udostępniają i publikują. Pamiętaj! Nie możesz używać tego serwisu do rozpowszechniania lub ściągania materiałów do których nie masz odpowiednich praw lub licencji. Użytkownicy są odpowiedzialni za przestrzeganie tych zasad.

(Disclaimer: None files presented in the directory aren't hosted on servers vortal. Users allow their release. The administrator of site BitNova.info and owner of the server can not be held responsible for what its users post, or any other actions of its users. You may not use this site to distribute or download any material when you do not have the legal rights to do so. It is your own responsibility to adhere to these terms.)
» Zgłaszanie nadużyć / Abuse