Jedyny taki katalog polskich torrentów w sieci. Najlepsze torrenty w jednym miejscu.

Korzystanie ze strony jest darmowe. W przeciwieństwie do konkurencji nie kasujemy kont użytkowników bez ich wyraźnej prośby.


Torrent: Beowulf 3D (2007)[BDRip 1080p x264 by alE13 AC3][Lektor i Napisy PL/Eng][Eng]

Beowulf 3D (2007)[BDRip 1080p x264 by alE13 AC3][Lektor i Napisy PL/Eng][Eng] torrent
Dodał: alE13
16.11.2017 11:01
Kategoria: Fantasy

Rozmiar: 8.47 GB
Seed'ów: 0
Leecher'ów: 0
Pobrań: 0

Kondycja:
 


» Komentarze [0]
» Obserwuj
» Zgłoś plik
User image

http://www.imdb.com/title/tt0442933/
http://www.filmweb.pl/Beowulf

Film w wersji 3D Half Over/Under.
Plik zawiera Sample.


reżyseria: Robert Zemeckis
scenariusz: Roger Avary,Neil Gaiman
gatunek: Animacja,Fantasy,Przygodowy
produkcja: USA
premiera: 05-11-2007
muzyka: Alan Silvestri
zdjęcia: Robert Presley
czas: 1 h 54 min

opis:

The warrior Beowulf must fight and defeat the monster Grendel who is terrorizing Denmark,
and later, Grendel's mother, who begins killing out of revenge.

W czasach wielkich bohaterów żyje najmężniejszy z nich – Beowulf. Pokonawszy potężnego
potwora o imieniu Grendel, Beowulf ściąga na siebie niegasnący gniew jego uwodzicielskiej,
a zarazem bezwzględnej matki, która zrobi wszystko, co w jej mocy, aby pomścić syna.
Epicka w swoim rozmachu walka, do jakiej doszło, wspominana była później przez wieki,
a imię Beowulf zapisało się na zawsze w ludzkiej pamięci.

User image
User image
User image
User image

dane techniczne:

Ray Winstone, Crispin Glover, Anthony Hopkins, Angelina Jolie

dane techniczne:

Beowulf 3D (2007)-alE13.mkv
Format : Matroska
Format version : Version 4 / Version 2
File size : 8.42 GiB
Duration : 1 h 54 min
Overall bit rate : 10.6 Mb/s
Movie name : Beowulf 3D (2007)-alE13
Encoded date : UTC 2017-11-14 09:19:55
Writing application : mkvmerge v8.1.0 ('Psychedelic Postcard') 64bit
Writing library : libebml v1.3.1 + libmatroska v1.4.2
Cover : Yes
Attachments : Cover.jpg

Video
ID : 1
Format : AVC
Format/Info : Advanced Video Codec
Format profile : High@L4.1
Format settings, CABAC : Yes
Format settings, ReFrames : 2 frames
Format settings, GOP : M=3, N=24
Codec ID : V_MPEG4/ISO/AVC
Duration : 1 h 54 min
Bit rate : 9 447 kb/s
Width : 1 920 pixels
Height : 1 080 pixels
Display aspect ratio : 16:9
Frame rate mode : Constant
Frame rate : 23.976 (24000/1001) FPS
Color space : YUV
Chroma subsampling : 4:2:0
Bit depth : 8 bits
Scan type : Progressive
Bits/(Pixel*Frame) : 0.190
Stream size : 7.54 GiB (90%)
Title : Beowulf 3D (2007)-alE13
Writing library : x264 core 142
Default : Yes
Forced : No
Color range : Limited
Color primaries : BT.709
Transfer characteristics : BT.709
Matrix coefficients : BT.709

Audio #1
ID : 2
Format : AC-3
Format/Info : Audio Coding 3
Mode extension : CM (complete main)
Format settings, Endianness : Big
Codec ID : A_AC3
Duration : 1 h 54 min
Bit rate mode : Constant
Bit rate : 640 kb/s
Channel(s) : 6 channels
Channel positions : Front: L C R, Side: L R, LFE
Sampling rate : 48.0 kHz
Frame rate : 31.250 FPS (1536 spf)
Compression mode : Lossy
Stream size : 523 MiB (6%)
Title : Beowulf 3D (2007)-alE13_AC3
Language : English
Default : No
Forced : No

Audio #2
ID : 3
Format : AC-3
Format/Info : Audio Coding 3
Mode extension : CM (complete main)
Format settings, Endianness : Big
Codec ID : A_AC3
Duration : 1 h 54 min
Bit rate mode : Constant
Bit rate : 448 kb/s
Channel(s) : 6 channels
Channel positions : Front: L C R, Side: L R, LFE
Sampling rate : 48.0 kHz
Frame rate : 31.250 FPS (1536 spf)
Compression mode : Lossy
Stream size : 366 MiB (4%)
Title : Beowulf 3D (2007)-alE13_AC3
Language : Polish
Default : Yes
Forced : No

Text #1
ID : 4
Format : VobSub
Muxing mode : zlib
Codec ID : S_VOBSUB
Codec ID/Info : Picture based subtitle format used on DVDs
Duration : 1 h 40 min
Bit rate : 6 079 b/s
Count of elements : 1038
Stream size : 4.38 MiB (0%)
Title : Beowulf 3D (2007)-alE13_VobSub
Language : Polish
Default : No
Forced : No

Text #2
ID : 5
Format : UTF-8
Codec ID : S_TEXT/UTF8
Codec ID/Info : UTF-8 Plain Text
Duration : 1 h 40 min
Bit rate : 36 b/s
Count of elements : 1038
Stream size : 26.6 KiB (0%)
Title : Beowulf 3D (2007)-alE13_SRT
Language : Polish
Default : No
Forced : No

Text #3
ID : 6
Format : VobSub
Muxing mode : zlib
Codec ID : S_VOBSUB
Codec ID/Info : Picture based subtitle format used on DVDs
Duration : 1 h 40 min
Bit rate : 5 539 b/s
Count of elements : 829
Stream size : 3.99 MiB (0%)
Title : Beowulf 3D (2007)-alE13_VobSub
Language : English
Default : No
Forced : No

Text #4
ID : 7
Format : UTF-8
Codec ID : S_TEXT/UTF8
Codec ID/Info : UTF-8 Plain Text
Duration : 1 h 40 min
Bit rate : 34 b/s
Count of elements : 829
Stream size : 25.3 KiB (0%)
Title : Beowulf 3D (2007)-alE13_SRT
Default : No
Forced : No

Menu
00:00:00.000 : en:1
00:05:22.202 : en:2
00:11:33.114 : en:3
00:16:56.312 : en:4
00:21:00.389 : en:5
00:28:21.496 : en:6
00:33:44.444 : en:7
00:37:41.473 : en:8
00:43:30.822 : en:9
00:48:42.133 : en:10
00:52:04.126 : en:11
00:55:14.816 : en:12
01:02:08.897 : en:13
01:08:12.302 : en:14
01:12:36.732 : en:15
01:18:50.898 : en:16
01:23:30.135 : en:17
01:26:20.764 : en:18
01:30:49.949 : en:19
01:33:52.549 : en:20
01:37:39.692 : en:21
01:42:22.975 : en:22
01:45:23.822 : en:23
Ocena użytkowników Help
Działa(0) | Fake(0) | Nie działa(0) | Wymagane hasło(0) | Wirus(0)
Statystyki seed/leech Ostatnio aktualizowane: 2018-04-20 22:39:15 [Aktualizuj]
Napisano: 24.05.2018 19:24
 
Nikt jeszcze nie skomentował tego torrenta... Może Ty to zrobisz?
Oświadczenie: Pliki prezentowane w katalogu nie znajdują się na serwerach wortalu. Użytkownicy zezwolili na ich udostępnienie. Administrator serwisu BitNova.info oraz właściciel serwera nie może ponieść konsekwencji za to co użytkownicy udostępniają i publikują. Pamiętaj! Nie możesz używać tego serwisu do rozpowszechniania lub ściągania materiałów do których nie masz odpowiednich praw lub licencji. Użytkownicy są odpowiedzialni za przestrzeganie tych zasad.

(Disclaimer: None files presented in the directory aren't hosted on servers vortal. Users allow their release. The administrator of site BitNova.info and owner of the server can not be held responsible for what its users post, or any other actions of its users. You may not use this site to distribute or download any material when you do not have the legal rights to do so. It is your own responsibility to adhere to these terms.)
» Zgłaszanie nadużyć / Abuse